<?xml version="1.0" standalone="no"?>
<!DOCTYPE svg PUBLIC "-//W3C//DTD SVG 1.1//EN" "http://www.w3.org/Graphics/SVG/1.1/DTD/svg11.dtd">
<svg xmlns="http://www.w3.org/2000/svg">
<defs >
<font id="AveriaSerifLibre" horiz-adv-x="939" ><font-face
    font-family="Averia Serif Libre"
    units-per-em="2048"
    panose-1="2 0 6 3 0 0 0 0 0 4"
    ascent="1828"
    descent="-465"
    alphabetic="0" />
<glyph unicode=" " horiz-adv-x="519" />
<glyph unicode="!" horiz-adv-x="601" d="M435 1304V1248L434 1237L433 1213Q432 1201 432 1190L430 1167Q429 1155 429 1144Q429 961 364 463Q356 398 312 398H289Q254 398 243 483Q202 797 202 978L198 1026Q192 1092 191 1123T188 1172T187 1202L185 1225L184
1269V1301Q184 1366 213 1397T317 1429H341Q435 1429 435 1304ZM296 -24Q245 -24 204 11T163 97V114Q163 173 209 206T294 239H317Q362 239 403 204T445 119V106Q445 69 413 24T328 -21L305 -24H296Z" />
<glyph unicode="&quot;" horiz-adv-x="782" d="M228 1450H235Q277 1450 300 1432T323 1369V1329L322 1323L319 1277Q315 1249 315 1236Q315 1110 263 954Q249 913 205 913H185Q149 913 149 1028L148 1035Q148 1049 148 1062L147 1075Q147 1082 147 1089L143 1130L140
1164Q136 1192 136 1198L115 1327L113 1340V1353L112 1366Q112 1450 228 1450ZM554 1449H588Q662 1449 662 1375V1322L661 1316L658 1276L653 1229Q653 1097 601 954Q586 913 543 913H523Q487 913 487 1035L486 1055Q486 1062 486 1069L485 1082Q485 1089 485 1096L478
1170Q474 1198 474 1204L471 1217Q471 1219 468 1237L462 1276Q452 1341 452 1346V1378Q452 1408 478 1428T554 1449Z" />
<glyph unicode="#" horiz-adv-x="1235" d="M699 826H645L640 825Q532 825 512 813T491 755T472 640T453 555L450 540V531Q450 521 500 521H565L571 522H582Q674 522 696 529T719 582L761 780L766 805V810Q766 826 699 826ZM576 945T677 945T796 984Q802 996 825
1110T860 1253Q884 1309 934 1309T985 1261Q985 1230 973 1162T961 1042T980 975T1066 946T1133 886Q1133 848 1090 831Q1079 826 1005 821T912 790Q863 725 863 568Q863 533 967 529T1072 477T1036 415Q1020 408 942 400T839 356T785 198T752 69Q732 30 682 30T632
100Q632 124 652 231T672 370T558 401T423 367Q415 354 392 239T360 99Q334 29 282 29T229 70Q229 104 244 186T260 309T243 369T155 398T84 451T120 512Q138 522 208 525T299 550Q352 607 352 770Q352 809 249 817T146 864Q146 911 183 929Q194 934 272 945T379
990T430 1135T470 1280T533 1313Q586 1313 586 1238L545 999Q545 964 560 955Z" />
<glyph unicode="$" horiz-adv-x="1111" d="M507 1250H498Q455 1250 399 1185T343 1067V1055L347 1020Q347 952 394 877T496 802Q507 802 507 852L511 894Q513 904 513 909L517 946V999L512 1038L511 1049L510 1055L509 1073Q509 1094 509 1115L513 1163L515 1185L518
1224Q518 1250 507 1250ZM624 596T611 596T598 515V468L599 461V441L601 415L611 333L613 293Q613 286 613 279L612 272V259Q609 229 609 226L601 168Q601 163 601 158L602 148Q602 121 611 121Q696 121 750 168T804 298L806 311V324L805 331Q805 429 748 515Q737
531 708 545T651 578ZM150 215V245Q150 351 189 351Q220 351 294 236Q334 174 381 149T456 124T493 157T504 364T486 569T369 658T229 771Q162 858 162 972T233 1169Q280 1223 409 1285Q475 1317 527 1411Q542 1439 572 1439T621 1384T672 1308T785 1272T893 1225T920
1116Q920 992 871 992Q847 992 779 1073T670 1155T619 1110T609 891Q609 793 643 755Q659 737 712 710T801 660Q986 546 986 362Q986 145 784 43Q756 29 702 8T633 -31T604 -108T548 -168Q515 -168 499 -104T446 -18T315 28T185 83T150 215Z" />
<glyph unicode="%" horiz-adv-x="1609" d="M522 1086Q522 1165 482 1222T397 1279H385L379 1278Q319 1278 286 1205T253 1052V996L254 989L256 959Q258 945 258 938Q258 880 296 820T380 759H403Q445 759 483 814T522 949L523 956L524 964L525 987V1049Q522 1073
522 1086ZM1322 333V389Q1319 413 1319 427Q1319 504 1268 577Q1235 624 1189 624H1171Q1125 624 1084 566T1043 426Q1041 412 1041 404L1039 365V349L1040 341L1041 318L1043 289Q1043 220 1090 146Q1121 97 1179 97L1185 98Q1244 98 1283 169T1322 333ZM727 1034V1011Q727
858 632 757T398 655L387 656Q262 656 185 745T107 967V1013Q107 1149 198 1253T425 1357H447L458 1356Q572 1356 649 1267T727 1034ZM1205 1363H1221Q1269 1363 1269 1337Q1269 1321 1227 1252Q770 499 497 97Q428 -5 372 -5T315 21Q315 81 1088 1261Q1155 1363
1205 1363ZM1503 377V321Q1503 196 1419 99T1209 1H1176Q1071 1 988 91T904 312V368Q904 495 987 591T1205 688L1215 687Q1335 687 1419 597T1503 377Z" />
<glyph unicode="&amp;" horiz-adv-x="1516" d="M487 1100Q487 1008 566 895Q598 849 616 849H621Q667 849 730 962Q759 1014 759 1075V1121Q759 1187 721 1242T625 1297H620Q573 1297 532 1251T491 1154L487 1126V1100ZM305 407V373Q305 275 380 194T562 112H604Q673
112 748 150T824 226V232Q824 241 650 447T464 653H457Q415 653 360 574T305 407ZM1253 775Q1315 775 1315 736Q1315 723 1269 664T1180 502T1137 305Q1137 254 1179 205T1288 124T1355 78V69Q1355 63 1337 51Q1275 8 1160 8Q1102 8 1014 41T894 74T736 32Q612
-10 522 -11Q335 -11 223 85Q161 139 131 207T101 336V368Q101 523 265 664Q358 744 358 795Q358 804 318 902T278 1061Q278 1203 374 1289T604 1375T817 1301T896 1130T835 931T773 749T827 591T935 512T1014 555T1039 649L1032 703Q1032 775 1253 775Z" />
<glyph unicode="&apos;" horiz-adv-x="451" d="M337 1342L329 1248Q329 1144 278 978Q262 925 223 925H196Q159 925 159 1052Q159 1062 159 1072L158 1086V1099L154 1154Q147 1203 147 1215L125 1356L124 1375Q124 1461 234 1461H255Q297 1461 317 1441T338 1369V1362L337
1355V1342Z" />
<glyph unicode="(" horiz-adv-x="684" d="M327 594Q327 324 407 84Q450 -48 555 -189Q607 -261 607 -285Q607 -326 558 -326Q510 -326 412 -218Q216 -1 150 303Q121 438 121 581L122 603V625Q122 746 152 885Q213 1169 388 1374Q509 1517 559 1517H577Q615 1517
615 1485V1469Q615 1454 568 1393Q327 1080 327 594Z" />
<glyph unicode=")" horiz-adv-x="683" d="M197 -82Q359 189 359 609T190 1297Q81 1470 81 1475Q81 1517 130 1517Q178 1516 276 1412Q471 1203 539 891Q568 756 568 613V591Q568 123 272 -213Q173 -326 128 -326H109Q70 -326 70 -296V-280Q70 -261 118 -197T197 -82Z" />
<glyph unicode="*" horiz-adv-x="946" d="M486 1433Q568 1432 568 1354Q568 1314 555 1237T542 1150T549 1141T640 1194T757 1247T812 1224T835 1167Q835 1110 720 1067Q637 1036 637 1033Q637 1007 681 973Q763 910 763 857T717 803Q698 803 658 817T595 843T567
856Q552 856 538 815T512 765Q476 741 438 741H424Q396 741 386 801T353 861Q348 861 323 856L294 850Q251 842 243 842Q204 842 204 915Q204 951 246 997T289 1046T256 1068T187 1127T151 1191T175 1236T232 1257T327 1212T414 1167Q420 1167 420 1186L411 1328Q411
1379 427 1406T486 1433Z" />
<glyph unicode="+" horiz-adv-x="1092" d="M538 1048H573Q605 1048 613 1012Q616 999 616 837T627 669Q630 667 813 667T997 627V610Q997 552 973 541T791 530T625 525T616 354T608 167T558 145H539Q488 145 480 179Q476 196 476 356T469 523T298 530T122 534Q96
542 96 582V600Q96 651 132 660Q155 666 311 666T472 675T477 845T485 1026T538 1048Z" />
<glyph unicode="," horiz-adv-x="528" d="M413 91V58Q413 -52 339 -159Q238 -305 160 -305H154Q119 -305 119 -272V-266L192 -171Q234 -116 234 -56Q234 -39 179 16T124 123T158 213T248 251H273Q336 251 374 209T413 91Z" />
<glyph unicode="-" horiz-adv-x="828" d="M721 600V563Q721 500 684 492T398 483H375L352 482H315L300 481H255L248 480H218L196 479H146Q111 479 111 515V553Q111 616 152 625Q178 631 434 631L628 635H679Q721 635 721 600Z" />
<glyph unicode="." horiz-adv-x="518" d="M254 -24Q202 -24 159 13T116 110V119Q116 177 160 215T251 253H269Q284 250 291 250Q326 250 364 212T402 124V110Q402 64 366 22T282 -21L259 -24H254Z" />
<glyph unicode="/" horiz-adv-x="847" d="M745 1472H763Q818 1472 818 1447T775 1315Q300 127 212 -72Q165 -178 109 -178H91Q36 -178 36 -156Q36 -47 635 1351Q687 1472 745 1472Z" />
<glyph unicode="0" horiz-adv-x="1202" d="M317 691V612Q317 393 393 234Q423 172 472 131T574 89H599Q653 89 699 125T772 218Q844 369 844 547L846 577V670Q846 897 767 1062Q739 1121 691 1157Q642 1193 582 1193Q462 1193 390 1054T317 691ZM600 -20H561Q470
-20 384 24Q206 116 135 344Q93 478 93 626V647Q93 942 247 1136Q379 1301 592 1301T941 1143Q1014 1057 1053 929T1093 675V614Q1093 492 1054 368Q978 126 795 30Q701 -20 600 -20Z" />
<glyph unicode="1" horiz-adv-x="877" d="M582 597Q582 271 598 220T681 122T748 44Q748 0 645 0H329Q173 0 173 51Q173 77 241 117T331 216T353 620T331 1017T227 1075T145 1120Q145 1146 194 1172Q217 1184 303 1214T446 1267T536 1289T585 1264T600 1174L586
933L584 891V850L582 766V597Z" />
<glyph unicode="2" horiz-adv-x="1107" d="M778 0H746L713 1L550 3L518 4L355 5Q207 5 178 16Q133 33 133 85T207 227Q209 230 389 413T622 677Q712 812 712 923T655 1097T516 1160Q373 1160 300 1017Q248 916 205 916Q136 916 136 993T168 1118T259 1203Q389
1289 567 1289T845 1194T945 939Q945 816 860 702T577 414T379 200Q379 170 545 170T773 190T886 249T965 288T994 218Q994 79 942 31Q908 0 778 0Z" />
<glyph unicode="3" horiz-adv-x="1086" d="M431 -82Q314 -82 215 -31T115 100T185 180Q235 180 321 114T504 47T666 124T731 317T646 508Q603 546 566 558T473 584T408 602Q383 616 383 650Q383 668 471 714Q665 814 665 975Q665 1061 618 1107T495 1153T350 1099Q230
1004 225 1004Q150 1004 150 1088T259 1232T498 1292H531Q639 1292 715 1264T824 1205Q889 1145 889 1020Q889 946 857 888T758 760T690 680Q690 678 726 660Q966 543 966 330Q966 146 819 32T464 -82H431Z" />
<glyph unicode="4" horiz-adv-x="1132" d="M615 1011Q614 1011 520 875T388 691T346 637L301 575L295 568L275 539Q255 512 231 483T207 446V442Q207 439 217 439H241L249 440L397 443Q589 443 596 455Q611 480 611 772L616 849V866L617 874Q617 882 617 890L620
968V1006L618 1011H615ZM512 23Q512 28 544 88T576 188Q576 263 519 286T328 310Q74 310 74 381V398Q74 515 607 1180Q685 1277 760 1277Q808 1277 821 1227Q830 1193 830 914T853 551Q866 505 932 471T999 387Q999 369 964 348T903 279T877 163Q877 148 897 109T918
34Q918 -6 843 -34T673 -62H631Q566 -62 539 -37T512 23Z" />
<glyph unicode="5" horiz-adv-x="1085" d="M472 1103Q472 1103 470 1103Q319 1103 319 912Q319 826 350 803Q366 792 462 792Q678 792 804 690Q879 629 916 549T954 394V361Q954 176 814 51T460 -75H428Q314 -75 215 -29T115 85V111Q115 182 197 182Q231 182 313
121T485 59Q601 59 674 162Q725 234 725 369Q725 425 697 485T622 583Q537 651 369 651L339 649Q320 648 273 648T204 683T183 828T210 1067T260 1226Q298 1273 548 1273Q701 1273 768 1285L797 1291Q834 1299 850 1299Q921 1299 921 1225Q921 1095 764 1095Q706
1095 663 1097L599 1100Q503 1103 472 1103Z" />
<glyph unicode="6" horiz-adv-x="1140" d="M326 501V443Q326 301 390 193T571 85H580Q676 85 740 167T805 384V425Q805 571 737 652T576 733H548Q445 733 386 669T326 501ZM588 822T644 822T776 794Q852 764 908 710Q1024 598 1024 418V392Q1024 323 992 242Q930
83 758 11Q676 -23 586 -23H560Q359 -23 229 122Q170 188 132 295T94 517V571Q94 712 139 855T276 1103T501 1268Q632 1327 737 1327H740Q924 1327 924 1257Q924 1212 885 1198T755 1184Q608 1184 533 1125T420 997T382 897T406 841T480 816Q588 822 644 822Z"
/>
<glyph unicode="7" horiz-adv-x="1053" d="M300 -19Q300 77 531 550T763 1057T719 1099T512 1109T278 1079Q244 1064 201 1015T134 965Q91 965 91 1030V1054Q91 1180 118 1241Q137 1284 201 1284L225 1283L275 1282L324 1280L684 1276H760Q786 1277 853 1277T943
1264T967 1209T800 771T581 189T524 -6Q490 -84 405 -84H381Q300 -84 300 -19Z" />
<glyph unicode="8" horiz-adv-x="1131" d="M772 1062Q772 1149 716 1218T563 1287H527Q465 1287 412 1234T358 1093V1069Q358 984 442 890T619 796Q673 796 721 872T770 1008L772 1023V1062ZM291 398V371Q291 258 368 174T557 90H583Q668 90 737 154T807 312V339Q807
446 719 527Q576 659 482 659H474Q409 659 336 545Q291 475 291 398ZM90 338Q90 435 135 503T226 611Q326 696 326 698L252 775Q142 890 142 1031T260 1269T544 1366H567Q743 1366 846 1276T950 1035Q950 919 825 801Q759 739 759 726L852 652Q1004 531 1004 366V344Q1004
262 965 192T863 74Q736 -22 537 -22T214 78T90 338Z" />
<glyph unicode="9" horiz-adv-x="1139" d="M540 1201H530Q435 1201 371 1119T306 901V860Q306 717 375 635T536 552H564Q672 552 744 637Q785 685 785 814L784 824L783 853L781 892Q781 1017 700 1120Q636 1201 540 1201ZM728 388Q728 424 698 446Q669 468 625
468Q623 468 621 468Q574 467 552 467L529 465Q513 464 456 464T321 498T186 595Q88 702 88 864Q88 1064 215 1187T546 1310Q781 1310 910 1134Q1017 989 1017 724Q1017 383 826 169Q748 81 620 21T357 -39Q285 -39 239 -19T192 40T244 92Q274 100 369 100Q508
100 598 176Q728 286 728 388Z" />
<glyph unicode=":" horiz-adv-x="551" d="M268 679Q232 679 187 711T141 803V830Q141 867 177 909T262 952L271 954H298Q308 952 312 952Q356 952 391 911T426 821V816Q426 773 393 727T305 681L296 679H268ZM289 -1H266Q256 1 252 1Q207 1 172 43T137 132V136Q137
185 175 229T272 274H295Q332 274 377 242T423 151V128Q423 74 380 37T289 -1Z" />
<glyph unicode=";" horiz-adv-x="563" d="M293 654H270Q262 656 257 656Q213 656 182 699T151 786V799Q151 855 196 894T291 933H300Q340 933 384 901T429 806V787Q429 730 385 692T293 654ZM430 105V81Q430 -26 374 -114T263 -239T189 -277H183Q149 -277 149
-244V-239Q149 -225 173 -201T228 -136T258 -38Q258 -9 205 39T151 143T190 234T280 270H295Q358 270 394 226T430 105Z" />
<glyph unicode="&lt;" horiz-adv-x="1086" d="M96 599Q96 632 303 754Q893 1101 916 1101Q953 1101 953 1048T868 933Q811 891 563 749T314 590Q314 584 556 445T876 251T954 139T923 81T305 426Q96 549 96 581V599Z" />
<glyph unicode="=" horiz-adv-x="1131" d="M941 836Q1011 836 1011 792V782L1010 771Q1010 711 969 704Q951 701 556 701L526 700H313L282 699H182Q123 699 123 734V765Q123 819 145 827T353 836H373L383 835L891 836H941ZM938 490Q1008 490 1008 445L1007 435L1006
414Q1006 365 965 358Q941 354 542 354H360L320 353H179Q120 353 120 398V408L121 418Q121 478 162 485Q186 489 582 489L888 490H938Z" />
<glyph unicode="&gt;" horiz-adv-x="1081" d="M167 1101Q189 1101 257 1061T598 863T928 668T986 587Q986 551 780 430Q192 84 168 84H155Q130 84 130 137T199 241T521 437T773 591T531 742T213 937T137 1046T167 1101Z" />
<glyph unicode="?" horiz-adv-x="938" d="M840 1101V1062Q840 961 787 884T633 719T510 603T483 542T477 469T468 414Q455 387 416 387T352 435T328 565T372 715Q382 732 470 831T583 981T608 1103T559 1216T430 1257T292 1196Q210 1110 172 1110Q99 1110 99 1194V1212Q99
1310 181 1360Q284 1423 417 1423H437Q606 1423 726 1328Q777 1287 808 1223T840 1101ZM413 -30H404Q356 -30 314 5T272 96V114Q272 166 315 202T399 238H426Q479 238 514 196T549 113V99Q549 43 505 7T413 -30Z" />
<glyph unicode="@" horiz-adv-x="1761" d="M1036 729Q1036 786 1008 817T929 848H922L914 847Q881 847 820 814T718 718Q646 606 646 468L647 460Q647 357 672 302T744 247H766Q794 247 851 280T946 367Q1030 488 1030 618Q1033 642 1033 650L1036 698V729ZM1290
-40Q1319 -40 1319 -73Q1319 -118 1162 -171T844 -224T541 -169T309 -21T159 202T100 472V533Q100 680 160 826Q279 1117 570 1243Q740 1317 914 1317Q1304 1317 1495 1053Q1608 897 1609 655Q1609 548 1564 450Q1480 264 1318 192Q1252 163 1191 163T1076 186L1001
221L967 232Q943 232 854 202T697 171T565 234T500 417T542 645T652 819T775 901T980 919T1150 887T1172 778T1169 646L1160 476Q1160 381 1188 341T1256 300T1335 330T1404 411Q1465 518 1465 658Q1465 901 1316 1043Q1158 1193 906 1193Q782 1193 668 1147T467
1016T324 809T267 546Q267 234 447 63T930 -109Q1016 -109 1101 -90L1153 -76L1203 -60Q1268 -40 1290 -40Z" />
<glyph unicode="A" horiz-adv-x="1448" d="M857 593V599Q857 693 696 1069Q668 1134 667 1134L638 1067Q472 680 472 597Q472 583 489 582T516 581L594 579H665L672 580Q857 580 857 593ZM23 60Q23 85 80 118T164 202T240 386T373 723T507 1087T575 1292Q616 1390
691 1390H719Q738 1390 766 1369Q823 1326 885 1185Q906 1137 948 1021T1116 565T1257 196Q1282 144 1342 113T1402 62Q1402 20 1352 10Q1318 3 1180 3L1122 2Q937 2 937 52Q937 61 960 95T984 181T947 330T884 450T666 473T442 452T373 339T336 190T371 88T407
42Q407 6 285 6T93 15T23 60Z" />
<glyph unicode="B" horiz-adv-x="1321" d="M538 1281Q493 1281 483 1247Q477 1226 477 1058V864Q477 802 488 788T556 773H598L607 774L667 777Q676 778 684 778Q780 778 845 849T910 1021V1048Q910 1151 840 1215T667 1280L649 1282L623 1283H563Q547 1281 538
1281ZM658 670H572Q495 670 486 649T476 522V235Q476 142 498 122T624 101H683Q815 101 897 170T979 354V406Q979 529 889 599T658 670ZM635 1390Q991 1390 1092 1203Q1128 1137 1128 1052T1088 901T1016 811T952 766T919 740T999 694T1127 598Q1211 498 1211 392V366Q1211
190 1067 86Q1015 48 922 20T699 -9H593L567 -8Q541 -7 514 -7L488 -6Q462 -5 436 -5L410 -4Q384 -3 358 -3H281Q107 -3 107 30T160 93T230 194T247 528V857L245 961Q244 987 244 1085T226 1222T152 1288T97 1334Q97 1363 125 1373T297 1384L529 1390H635Z" />
<glyph unicode="C" horiz-adv-x="1361" d="M769 1403H803Q873 1403 964 1386T1107 1365T1189 1345Q1247 1312 1247 1174T1195 1036Q1178 1036 1111 1112T983 1222Q875 1280 741 1280Q664 1280 586 1238Q351 1113 351 694Q352 434 472 274T806 114Q989 114 1116
235Q1195 310 1217 310Q1259 310 1259 249Q1259 218 1220 152T1133 59Q998 -16 782 -16H747Q626 -16 502 28Q251 117 150 380Q98 517 98 679T150 978Q255 1254 506 1353Q633 1403 769 1403Z" />
<glyph unicode="D" horiz-adv-x="1509" d="M654 1287H606Q496 1287 484 1243Q478 1222 478 946V572L477 523Q477 498 477 473L476 424Q476 399 476 374L475 309V260Q475 156 504 132T645 107L661 108Q870 108 995 246Q1058 315 1094 426T1130 653V725Q1130 832
1098 944Q1032 1170 837 1253Q758 1287 654 1287ZM632 1395H684Q1185 1394 1343 1004Q1395 876 1395 733V705Q1395 539 1340 407Q1232 149 960 44Q835 -4 684 -4H609L584 -3L533 -2Q508 -1 482 -1L335 2Q111 2 111 35T154 90Q228 128 239 150Q263 196 263 360V834L261
961L259 1062Q259 1196 236 1232T161 1289T109 1343Q109 1381 262 1381L358 1383L382 1385L406 1386Q622 1395 632 1395Z" />
<glyph unicode="E" horiz-adv-x="1275" d="M947 1393Q1126 1393 1126 1192Q1126 1139 1103 1139Q1090 1139 1042 1168T961 1209Q819 1258 709 1258T558 1204Q501 1129 501 928Q501 856 550 821T662 786T791 829T858 873Q908 873 926 834T945 707Q945 552 874 552Q855
552 795 600T668 649Q553 649 515 600Q490 568 490 408T547 174Q579 133 700 133T982 185Q1027 199 1054 218T1109 258T1144 280Q1178 280 1178 246V214Q1178 137 1152 88T1103 24Q1062 -2 777 -2H645L601 -1Q224 -1 166 7T108 52Q108 75 162 110T232 198T248 613L252
1004Q252 1196 228 1242Q217 1263 166 1290T115 1338Q115 1378 180 1388Q207 1392 605 1392L905 1393H947Z" />
<glyph unicode="F" horiz-adv-x="1195" d="M973 1396Q1054 1396 1091 1357T1129 1187Q1129 1114 1096 1114Q1092 1114 1032 1161T930 1226Q826 1267 672 1267Q575 1267 536 1204T497 954Q497 849 535 811T648 773T793 815T867 857Q904 857 919 823T935 713Q935
545 851 545Q837 545 779 575T693 606Q597 606 549 569T500 417T520 219T552 113T580 67T597 33Q597 -4 462 -4H427L392 -3Q119 -3 119 52Q119 80 172 114Q226 148 238 186T250 370V570L253 677L254 785V894Q254 1126 236 1188T187 1273Q111 1328 111 1338Q111
1372 152 1382Q178 1388 321 1388L572 1393L681 1396H973Z" />
<glyph unicode="G" horiz-adv-x="1469" d="M786 1402Q1072 1402 1198 1355Q1226 1345 1252 1308T1278 1180T1245 1061L1225 1050Q1198 1050 1136 1120Q992 1280 790 1280Q589 1280 468 1123Q348 966 348 705Q348 445 474 281Q600 116 805 116Q938 116 998 172T1058
394Q1058 458 1028 506Q1020 519 989 549T957 588Q957 631 1154 631Q1280 631 1321 618T1362 567Q1362 560 1336 522T1306 470T1290 299T1255 108T1143 49Q916 -21 808 -21H768Q628 -21 504 27T293 163T153 387T100 668V711Q100 852 156 990Q261 1248 506 1347Q642
1402 786 1402Z" />
<glyph unicode="H" horiz-adv-x="1610" d="M1506 37Q1506 -5 1362 -5H1314L1265 -4Q1131 -4 1080 6T1029 49Q1029 58 1062 97T1113 201T1130 430T1095 626T810 659T519 620Q492 595 492 421T504 193T538 109L558 86Q589 51 589 45Q589 9 526 2Q498 -1 302 -1T105
44Q105 68 182 119Q233 153 243 210T253 692T238 1183T164 1284T104 1348Q104 1387 354 1387H451Q591 1387 591 1340Q591 1336 557 1294T510 1190T496 988T529 817T809 786T1092 820Q1117 844 1117 997T1107 1193T1074 1264L1053 1287Q1022 1320 1022 1331Q1022
1369 1077 1376T1322 1383T1512 1342Q1512 1311 1476 1286Q1395 1231 1388 1215Q1371 1176 1371 837L1364 343Q1364 204 1379 164T1429 103Q1506 56 1506 37Z" />
<glyph unicode="I" horiz-adv-x="766" d="M651 1351Q651 1332 594 1295T523 1195T509 692T525 189T598 94T655 35Q655 -2 564 -2L542 -1L496 0Q473 1 450 1L406 3H271Q108 3 108 32V46Q108 65 172 102T253 208T269 697T250 1188T190 1281Q108 1326 108 1349Q108
1388 417 1388L527 1390H592Q651 1390 651 1351Z" />
<glyph unicode="J" horiz-adv-x="828" d="M369 987Q369 1140 340 1210Q324 1248 269 1286T213 1351Q213 1382 379 1382Q395 1382 435 1384T499 1388L548 1391Q597 1394 622 1394H647Q713 1394 713 1353Q713 1340 676 1305T625 1230T610 1033L608 982L607 906V828Q605
776 605 744V673L604 621V455Q604 315 587 196Q548 -75 337 -188Q248 -236 160 -236Q-1 -236 -1 -156Q-1 -109 32 -78T135 -47L194 -51Q235 -51 267 -21T333 112T367 458L371 608V912L370 937Q369 962 369 987Z" />
<glyph unicode="K" horiz-adv-x="1458" d="M574 627Q494 627 494 398Q494 278 512 212T542 124L560 100Q584 67 584 58Q584 24 534 12T297 0T110 39Q110 65 168 105T239 223T253 695T238 1164T184 1280L160 1302Q118 1340 118 1347Q118 1399 306 1399L351 1398H398Q594
1398 594 1356Q594 1336 563 1296T524 1229Q498 1134 498 877Q498 771 538 771Q554 771 597 805Q695 882 828 1042T961 1265L959 1292L953 1317L948 1341Q948 1373 985 1383T1137 1393Q1313 1393 1313 1343Q1313 1331 1212 1259T1020 1090Q803 859 803 786Q803
746 1129 321Q1210 216 1302 137T1394 45Q1394 -1 1206 -1H1162Q1059 -1 1025 30T969 119Q922 241 781 434T574 627Z" />
<glyph unicode="L" horiz-adv-x="1219" d="M751 -2H721L691 -1H542Q187 -1 159 4Q107 13 107 48Q107 63 161 101T232 210T249 736T238 1229T179 1289Q105 1321 105 1357T217 1393H277L306 1392L396 1391Q638 1391 638 1355Q638 1343 567 1274Q527 1235 510 1141T492
637T504 190T563 137Q591 128 673 128Q850 128 938 174Q988 200 1046 281T1136 362T1169 320V294Q1169 74 1115 25Q1085 -2 751 -2Z" />
<glyph unicode="M" horiz-adv-x="1913" d="M951 428Q965 428 1145 816T1367 1269T1464 1355T1639 1378T1760 1322L1736 1292L1705 1259Q1675 1220 1663 1169T1650 999Q1650 497 1676 267Q1686 177 1741 126T1796 57L1771 39Q1723 17 1582 17T1405 54L1395 76Q1395
105 1417 195T1439 376Q1439 1032 1397 1032Q1376 1032 1206 626T998 150T896 79Q852 79 656 559T425 1040Q397 1040 397 549Q397 331 404 281T427 161T444 68T413 30T333 15H278Q113 15 113 57Q113 78 169 126T235 210T261 570T277 1011T263 1172T199 1268T148
1344Q148 1376 333 1376Q404 1376 456 1357T558 1264T770 809T951 428Z" />
<glyph unicode="N" horiz-adv-x="1588" d="M1353 246Q1353 74 1342 46T1293 17Q1211 17 1086 167L1056 204Q961 325 872 457T749 636Q441 1065 414 1065Q393 1065 393 714T422 218Q432 166 465 117T499 50Q499 7 296 7H250Q108 7 108 43T169 113T247 207T263 627L266
776L265 922Q265 1135 239 1201Q227 1232 170 1275T113 1327Q113 1380 221 1380T393 1354T504 1282T714 1022T938 720L1023 604Q1176 395 1186 395Q1218 395 1218 744T1205 1165T1148 1284T1104 1336Q1104 1385 1211 1385H1306Q1433 1385 1474 1366Q1498 1355 1498
1323Q1498 1320 1422 1245Q1381 1205 1368 1143T1355 711L1353 516V246Z" />
<glyph unicode="O" horiz-adv-x="1536" d="M343 740V686Q343 425 458 250Q510 171 587 125T747 79H763Q941 79 1048 245Q1090 309 1120 416T1150 644V699Q1150 832 1116 950Q946 1240 741 1305Q667 1304 593 1270Q439 1198 377 980Q343 859 343 740ZM1424 730V683Q1424
547 1376 412Q1277 134 1024 26Q895 -29 765 -29H718Q589 -29 477 23T282 159T150 382T99 656V703Q99 842 147 976T282 1207T493 1357T750 1411H773Q1058 1411 1231 1232Q1317 1143 1370 1006T1424 730Z" />
<glyph unicode="P" horiz-adv-x="1277" d="M487 1144V765Q487 695 506 675T599 654H646Q778 654 859 735T941 959V992Q941 1137 854 1217T616 1297H607Q521 1297 504 1274T487 1144ZM587 1403H694Q1048 1403 1152 1190Q1191 1110 1191 1013V985Q1191 985 1191
983Q1191 793 1024 676Q905 593 656 574Q550 566 528 541Q493 502 493 354T524 161Q539 140 591 109T644 60Q644 7 515 7H262Q117 7 117 55Q117 85 170 117T238 184T253 368L254 393Q255 419 255 445T255 497L256 549V679L255 731Q255 1112 240 1187T174 1292T123
1346T151 1384T321 1396L427 1398L506 1401Q559 1403 587 1403Z" />
<glyph unicode="Q" horiz-adv-x="1569" d="M323 749V676Q323 429 459 248Q512 179 590 137T758 95Q946 95 1069 265Q1180 417 1180 659V714Q1180 840 1146 954Q1074 1194 907 1274Q830 1311 738 1311T568 1269Q417 1188 356 974Q323 857 323 749ZM1134 -13Q1134
-48 1219 -91T1422 -161T1540 -222T1490 -280T1364 -305H1336Q1229 -305 1040 -223Q477 21 348 122T146 383T74 706Q74 1029 255 1224Q344 1319 467 1370T727 1422H757Q885 1422 1011 1368T1227 1216Q1398 1032 1398 733Q1398 510 1343 338Q1294 187 1176 56Q1134
9 1134 -13Z" />
<glyph unicode="R" horiz-adv-x="1398" d="M473 1144V809Q473 736 489 722T560 707H603Q752 707 833 781T914 977V1018Q914 1142 835 1214T627 1287H565Q502 1287 488 1267T473 1144ZM653 1392Q1016 1392 1120 1170Q1148 1110 1148 1020Q1148 852 997 727Q913
657 913 610Q913 596 1012 429T1156 204T1270 120T1338 68Q1338 -3 1183 -3Q1070 -3 1014 52Q975 90 858 299T726 527Q673 594 565 594Q519 594 502 553T485 367T504 176T564 87T604 37Q604 3 477 3L443 4L410 6Q388 7 342 7Q107 7 107 47T140 107Q224 159 230
170Q253 212 253 401L255 471L256 541Q256 576 256 611L254 715Q254 1122 235 1191T165 1290T114 1344Q114 1384 274 1384L308 1385Q343 1386 377 1386L583 1392H653Z" />
<glyph unicode="S" horiz-adv-x="1148" d="M671 1296T569 1296T401 1243T336 1093T433 922Q491 877 670 800T919 658Q1053 534 1053 400V364Q1053 198 921 94Q860 46 769 18T587 -11H550Q344 -11 189 51Q119 79 119 204V239Q119 387 170 387Q205 387 265 292T403
149T593 101T772 159T840 304Q840 422 730 503Q683 537 494 624T232 788Q132 892 132 1042T239 1291Q298 1346 386 1376T566 1407H603Q641 1407 711 1394L746 1387Q808 1375 813 1374L844 1372L874 1371Q916 1368 933 1361Q992 1337 992 1194T936 1051Q908 1051
852 1131T753 1240Q671 1296 569 1296Z" />
<glyph unicode="T" horiz-adv-x="1315" d="M1270 1178V1147Q1270 1065 1221 1065Q1207 1065 1157 1133T1055 1231T922 1260T818 1242T786 1169T776 692T790 207T867 100T929 28T835 -1L801 0L735 1Q701 2 669 2L572 3Q445 3 411 9T376 50Q376 67 440 108T521 216T538
722T526 1203Q510 1259 415 1259T267 1229T167 1126T79 1054Q49 1054 49 1109V1139Q49 1354 86 1380Q100 1390 677 1390L1153 1392Q1228 1392 1249 1353T1270 1178Z" />
<glyph unicode="U" horiz-adv-x="1520" d="M226 446T226 781T215 1177T164 1261Q81 1311 81 1339T116 1379T297 1391H449Q560 1391 560 1346Q560 1344 523 1298T472 1164T459 798T473 418Q515 114 811 113Q1005 113 1092 249Q1165 361 1165 638L1167 720Q1167
781 1167 934T1149 1161T1094 1292T1057 1351Q1057 1389 1204 1389T1402 1379T1453 1323Q1453 1300 1393 1265T1319 1189T1305 870L1307 629Q1306 433 1284 332Q1262 230 1193 148Q1059 -12 758 -12T318 171Q252 257 235 381Q226 446 226 781Z" />
<glyph unicode="V" horiz-adv-x="1438" d="M30 1335Q30 1373 73 1380T307 1388T498 1344Q498 1328 478 1296T458 1221T494 1066Q643 603 703 453T773 303Q792 303 837 410Q976 741 1057 1034Q1090 1153 1090 1193T1077 1259T1047 1311T1030 1348Q1030 1391 1194
1391H1263Q1418 1391 1418 1350Q1418 1315 1354 1274T1270 1195T1072 690T844 106T724 -10T599 109Q597 112 397 641T174 1208T114 1269Q30 1320 30 1335Z" />
<glyph unicode="W" horiz-adv-x="2059" d="M153 1380T233 1380T362 1362Q452 1330 473 1187Q483 1114 535 891T624 564T711 459T822 663T884 1029Q884 1081 873 1127L861 1168L851 1207Q851 1280 907 1318T1042 1357T1181 1311T1242 1205L1237 1166L1230 1127Q1230
975 1389 545Q1419 463 1456 463T1514 495T1600 765T1677 1145T1691 1298Q1716 1379 1848 1379Q1914 1379 1941 1356T1968 1299T1907 1169T1814 979L1760 813Q1744 765 1725 701L1691 590Q1575 226 1539 160Q1481 55 1413 55Q1336 55 1278 188Q1249 255 1165 525T1061
844L1042 885Q1019 885 917 578T775 185Q714 52 640 52T512 160Q488 209 382 560T245 995T156 1179T97 1303T116 1345Q153 1380 233 1380Z" />
<glyph unicode="X" horiz-adv-x="1440" d="M86 1339Q86 1385 332 1385L418 1387Q461 1388 501 1388Q577 1388 577 1334L549 1293Q533 1270 533 1236T638 1046T764 890Q780 890 887 1036T995 1242Q995 1265 972 1305T949 1357Q949 1393 1102 1393H1144Q1348 1393
1348 1350Q1348 1319 1246 1266Q1184 1233 1120 1154Q860 829 860 726Q860 714 900 652Q1121 312 1179 236T1283 131Q1374 72 1374 48Q1374 3 1041 3H958Q890 3 890 35Q890 52 908 82T926 121Q926 187 766 434Q695 544 670 544Q655 544 569 426Q425 227 425 155Q425
126 448 86T472 41Q472 3 279 3H238Q68 3 68 35Q68 77 158 122Q220 153 283 231Q584 603 584 698Q584 722 527 808Q309 1137 263 1190T151 1279T86 1339Z" />
<glyph unicode="Y" horiz-adv-x="1359" d="M433 36Q433 59 484 99T555 192T574 399T488 708Q285 1074 218 1168Q182 1218 120 1253T57 1319Q57 1359 123 1372T402 1386Q507 1386 507 1336Q507 1333 490 1306T472 1244Q472 1165 655 843Q708 749 722 749Q753 749
864 951T976 1224Q976 1248 955 1291T934 1337Q934 1394 1130 1394H1197Q1315 1394 1315 1353T1259 1274Q1174 1218 1143 1174Q1049 1038 877 694Q806 552 806 304Q806 178 826 145T893 85T940 24T850 -10L598 -4Q433 -4 433 36Z" />
<glyph unicode="Z" horiz-adv-x="1278" d="M102 26T102 82T469 668T837 1236T708 1274Q489 1274 377 1236Q317 1216 271 1163Q180 1059 171 1059Q119 1059 119 1138Q119 1299 145 1346T263 1393H658L698 1392Q738 1391 777 1391L895 1390Q1061 1390 1087 1387Q1154
1379 1154 1344Q1154 1280 1074 1153Q1068 1144 747 662T425 152Q425 112 553 112Q850 112 956 157Q1020 184 1074 265T1170 347Q1194 347 1194 275Q1194 92 1145 32Q1115 -5 983 -5H711L283 0Q161 0 132 13Z" />
<glyph unicode="[" horiz-adv-x="691" d="M367 1511H543Q619 1511 619 1466Q619 1426 554 1411Q537 1407 492 1400T422 1380T383 1306T367 590T387 -125T488 -203Q609 -226 609 -269T503 -312H352Q222 -312 196 -285T169 -85V-10L170 15Q170 40 170 65L171 90V139L172
215V290L173 366Q173 404 173 442L174 517V568L175 618Q175 1388 185 1436T225 1497T367 1511Z" />
<glyph unicode="\" horiz-adv-x="845" d="M45 1447Q45 1466 105 1466T201 1385T359 990T486 664L499 628Q513 593 551 494T604 360T639 271T674 182L709 92Q713 83 718 68T762 -43T800 -152V-166Q800 -186 748 -186Q680 -186 633 -77Q428 401 89 1314Q45 1432
45 1434V1447Z" />
<glyph unicode="]" horiz-adv-x="695" d="M85 1461Q85 1511 151 1511H351Q475 1511 499 1478T524 1275V1175L523 1151Q523 1126 523 1101L522 1076Q522 1051 522 1026L521 950V875L520 799V724L519 648V573Q519 -205 509 -248T464 -301T267 -312H168Q81 -312 81
-276V-258Q81 -228 172 -207T281 -173T314 -98T329 612T315 1311T282 1375T174 1407T85 1461Z" />
<glyph unicode="^" horiz-adv-x="1062" d="M529 1188Q526 1188 382 972T197 756H185Q127 756 127 783Q127 825 456 1329Q489 1380 530 1380H544Q587 1380 625 1321Q939 840 939 783Q939 756 880 756H868Q814 756 679 972T529 1188Z" />
<glyph unicode="_" horiz-adv-x="1091" d="M1043 -141V-163L1042 -174Q1042 -221 1025 -228T919 -236H819L808 -235H530L485 -236H119Q46 -236 46 -194V-183L47 -171Q47 -122 69 -116T269 -110H302L313 -111L871 -110H949Q1043 -110 1043 -141Z" />
<glyph unicode="`" horiz-adv-x="712" d="M476 1111H466Q427 1111 276 1245T124 1418V1423Q124 1441 150 1461T213 1481H235Q285 1481 341 1418T458 1254T518 1144V1140Q518 1111 476 1111Z" />
<glyph unicode="a" horiz-adv-x="1064" d="M613 463H596Q465 463 378 405T290 259V239Q290 188 321 148T403 107L415 105H445Q549 105 615 190Q644 227 644 342Q644 351 644 360L645 384V408Q645 463 613 463ZM127 786Q127 860 244 918T488 977Q492 977 496 977Q616
977 688 948Q834 890 855 702Q857 683 857 451T869 178T937 119T993 83Q993 47 957 28Q885 -10 816 -10T712 22Q651 79 647 79T534 29T343 -22Q220 -22 150 46T80 211V236Q80 340 170 419T494 542Q579 558 601 572Q645 600 645 686T599 818T476 864T328 775T197
685Q127 685 127 786Z" />
<glyph unicode="b" horiz-adv-x="1163" d="M617 852H588Q535 852 485 823T407 750T379 504V345Q379 197 424 141T579 84H600Q706 84 771 184T836 413L838 436V507Q838 654 774 753T617 852ZM151 119Q151 130 162 220T174 438V726L175 775V975L174 1024V1073L173
1097Q172 1122 172 1180Q172 1299 109 1329T45 1387Q45 1408 74 1422Q146 1457 295 1457Q355 1457 372 1389Q382 1350 382 1118T419 886Q442 886 521 918T686 950Q851 950 959 824T1068 495V469Q1068 371 1033 279Q964 99 800 26Q712 -13 619 -13H595Q556 -13 476
6T317 25L235 18Q151 18 151 119Z" />
<glyph unicode="c" horiz-adv-x="979" d="M820 686Q778 686 704 773T532 860T368 764T302 490T383 214T596 114Q668 114 716 132T806 170T865 191Q894 191 894 153Q894 95 777 38T550 -19Q336 -19 206 115Q153 170 117 256T81 442V491Q81 493 81 496Q81 498 81
500Q81 587 120 680Q197 862 368 932Q467 972 565 972H588Q723 972 817 925Q893 887 893 798Q893 739 870 713T820 686Z" />
<glyph unicode="d" horiz-adv-x="1187" d="M750 685Q750 766 698 814T560 863H541Q496 863 445 836T361 758Q295 656 295 505V446Q295 296 362 198T527 100H556Q641 100 695 158T749 306L751 327V348L753 400Q753 448 753 496L754 528V559L753 570V623L752 633V654Q750
674 750 685ZM764 990T764 1100T747 1261T688 1346T645 1397T668 1427Q730 1463 870 1463H894Q964 1463 974 1388Q977 1365 977 817T985 215T1023 131Q1029 125 1061 101T1094 58T1066 24Q1009 -7 880 -7Q835 -7 808 20Q755 73 751 73T705 50T607 4T464 -20T307
17Q174 85 120 242Q88 336 88 448Q88 674 217 816T575 958L706 946Q746 946 755 968Z" />
<glyph unicode="e" horiz-adv-x="1022" d="M719 650V681Q719 755 666 814T536 874H517Q503 872 498 872Q428 872 366 792T303 621V608Q303 576 341 576Q356 573 357 573L380 572H386L393 573L586 584L622 588Q719 588 719 650ZM303 385Q303 271 389 194T607 117Q660
117 703 132T798 170T863 192Q903 192 903 149Q903 91 755 25Q659 -18 549 -18H527Q339 -18 215 96Q148 158 111 254T74 462L75 485V508Q75 604 119 697Q164 790 226 850Q357 976 537 977Q809 977 899 765Q927 698 927 642V622Q927 553 870 530T601 491T371 471Q303
454 303 385Z" />
<glyph unicode="f" horiz-adv-x="749" d="M443 -23H388Q95 -23 95 22Q95 48 144 79T209 164T225 473T211 762T157 823T118 871T162 948T225 1082Q271 1276 352 1364Q455 1477 641 1477Q731 1477 785 1446T839 1364T813 1290T757 1266T661 1302T560 1338Q505 1338
476 1270T446 1119T480 999Q492 986 569 947T646 877Q646 854 567 831T469 779Q437 732 437 476T455 167T528 76T582 16Q582 -23 443 -23Z" />
<glyph unicode="g" horiz-adv-x="1097" d="M505 913H479Q426 913 376 852T326 710L324 694L323 669V643L324 635Q324 531 369 467T503 403H510Q579 403 628 457T677 600V639Q674 663 674 678Q674 773 622 843T505 913ZM416 24Q346 24 297 -25T248 -148V-156Q248
-241 315 -290T498 -339H524Q664 -339 749 -275T834 -125L833 -117Q833 -60 786 -26T675 9Q635 14 617 14L583 17H566L506 21L465 24H416ZM1031 924Q1031 867 959 852T887 792L890 771L894 747L899 721Q904 688 904 628T870 504Q775 327 504 310Q417 304 393 295Q341
275 341 228T418 162Q429 159 617 143Q805 128 868 96Q1001 30 1001 -95Q1001 -259 855 -362T471 -465Q304 -465 193 -401Q142 -372 111 -326T79 -229Q79 -140 132 -81Q217 13 217 19T180 72T143 170T191 280T240 347T180 449T120 631T157 784Q262 975 548 975H577L716
966L767 964Q793 963 820 963L926 970Q1031 970 1031 924Z" />
<glyph unicode="h" horiz-adv-x="1231" d="M101 55Q101 73 144 120T197 216T208 722T187 1277Q177 1324 145 1346Q87 1387 87 1390Q87 1427 126 1442Q200 1471 299 1471H332Q378 1471 397 1434T417 1271L416 1234Q415 1197 415 1160L413 1086Q413 1049 413 1012Q413
881 459 881Q464 882 510 902Q649 964 743 964Q919 964 990 823Q1037 727 1037 351Q1037 206 1047 171T1104 97T1151 49Q1151 18 1111 7T904 -4H869Q760 -4 760 40Q760 50 786 90T820 182T828 449T808 721Q739 811 655 831Q540 831 471 749Q420 689 420 476T430
204T473 98T507 39Q507 3 304 3T101 55Z" />
<glyph unicode="i" horiz-adv-x="642" d="M457 1284Q457 1240 420 1203T345 1165Q337 1163 332 1163L310 1161Q260 1161 221 1194T181 1279V1297Q181 1349 222 1384T318 1420H323L357 1416Q388 1416 421 1383T455 1315L457 1306V1284ZM87 863T87 885T108 920Q181
964 339 964H368Q422 964 429 914Q433 887 433 551T447 165T514 89T567 35Q567 -3 319 -3L289 -4H167Q94 -4 94 32Q94 62 138 90T200 152Q219 189 219 325L220 357V388L221 435V466L222 497Q222 734 207 773T139 838Z" />
<glyph unicode="j" horiz-adv-x="602" d="M199 1278V1287Q199 1326 232 1373T325 1420H346Q386 1420 426 1387T466 1300V1281Q466 1234 430 1198T357 1161L348 1159L340 1157L314 1156Q259 1156 229 1192T199 1278ZM449 724V391Q449 -77 390 -203Q346 -298 254
-354T67 -411H51Q-29 -411 -29 -344Q-29 -268 86 -254Q143 -247 163 -232T202 -170Q237 -81 237 295T224 736T178 830Q109 892 109 904T130 930Q196 971 367 971Q428 971 438 929T449 724Z" />
<glyph unicode="k" horiz-adv-x="1170" d="M492 424Q431 424 431 248Q431 186 460 127L487 81Q501 56 501 45Q501 9 300 9T99 43Q99 52 132 97T181 204T197 491L198 529Q200 580 200 605L202 681L203 758V913Q203 1202 193 1254T155 1334L133 1351L109 1366Q80
1387 80 1405T104 1438Q172 1477 314 1477H348Q405 1477 419 1396Q424 1366 424 948L423 833Q423 696 424 687Q435 592 476 592T617 700T717 855L714 891Q714 925 740 939T851 953Q1042 953 1042 912Q1042 911 865 769T688 566T931 221Q984 159 1047 114T1111 54Q1111
5 963 5H890Q794 5 752 60L712 157Q687 217 629 299Q540 424 492 424Z" />
<glyph unicode="l" horiz-adv-x="629" d="M84 35Q84 56 129 89T191 192T207 728T197 1255T145 1344Q79 1387 79 1397V1409Q79 1426 108 1439Q198 1478 348 1478H368Q419 1478 427 1409Q428 1400 428 1258V1043L427 1002V939L426 898Q426 898 426 581Q426 285 435
215T480 112Q484 109 522 86T560 39Q560 4 436 4L395 2H354L190 -1H169Q84 -1 84 35Z" />
<glyph unicode="m" horiz-adv-x="1814" d="M815 226T815 454T780 752T650 822Q593 822 532 778T451 679T431 428T434 184T449 112L462 87Q478 56 478 42Q478 5 325 5T126 36L108 55Q108 83 128 103Q188 164 199 196T210 479T167 808L146 835Q120 868 120 885T157
926T274 950T394 908T451 865L481 879L557 924Q650 973 746 973T929 915T1038 856L1072 872L1109 894Q1156 922 1210 944Q1262 966 1348 966Q1512 966 1580 830Q1630 730 1630 362Q1630 204 1640 179T1694 117T1738 75V51L1719 33Q1671 4 1475 4Q1381 4 1381 50Q1381
55 1394 95T1410 159T1413 414T1391 702T1335 792T1233 824T1118 787T1052 705T1033 430T1047 166T1099 96T1138 51Q1138 1 963 1H823Q718 1 718 31T744 90Q800 149 807 187Z" />
<glyph unicode="n" horiz-adv-x="1246" d="M228 8Q87 8 87 48Q87 81 124 102Q191 140 202 170T213 459T198 762T141 836T100 883T127 917Q190 954 327 954Q368 954 391 926Q399 916 413 883T433 849Q452 850 492 876Q630 969 742 969H744H776Q857 969 922 929T1022
809T1058 461T1069 161T1134 102T1188 49Q1188 4 904 4H874Q784 4 784 47Q784 56 806 90T836 167T844 443T815 745Q775 837 682 837Q614 837 551 806T459 717T430 442T442 179T471 105L508 45Q508 6 351 6L290 8H228Z" />
<glyph unicode="o" horiz-adv-x="1122" d="M305 515V478Q305 308 371 196Q402 143 450 112T547 81H567Q658 81 724 169T791 421V492Q791 653 725 765T556 878H525Q433 878 369 779T305 515ZM1032 511V461Q1032 382 1000 288Q933 92 733 14Q646 -20 565 -20H532Q341
-20 213 108Q155 166 119 261T83 463V480Q83 577 117 676Q183 869 376 944Q463 978 543 978H593Q682 978 768 938Q931 862 995 696Q1032 598 1032 511Z" />
<glyph unicode="p" horiz-adv-x="1195" d="M864 446V505Q864 666 798 762T632 858H622Q567 858 515 828T436 750T408 473V388L409 377V335L410 325V304Q412 282 412 272Q412 187 466 140T613 92H623Q733 92 798 193T864 446ZM412 16T412 -118T431 -289T494 -356T538
-407Q538 -452 408 -452H308Q80 -452 80 -406Q80 -392 138 -336Q169 -306 187 -215T205 132V547L203 654Q203 752 177 797Q167 814 125 843T83 894T107 927Q185 965 313 965Q346 965 380 925T419 885Q435 885 483 912T535 942Q621 982 684 982H736Q792 982 863
951Q999 892 1058 730Q1093 635 1093 545V489Q1093 396 1055 298Q980 104 801 34Q725 4 624 4L464 16Q412 16 412 -118Z" />
<glyph unicode="q" horiz-adv-x="1171" d="M304 512V451Q304 312 370 210T532 107H561Q641 107 711 172Q755 213 755 290L757 310L758 351V436L757 446Q757 457 757 468L756 500Q756 747 727 802Q685 882 561 882L551 881Q444 881 374 779T304 512ZM1102 -414Q1102
-457 903 -457H753Q643 -457 643 -416Q643 -402 688 -358T750 -260T767 -74T728 58Q715 58 637 29T480 0T322 36Q171 104 113 288Q87 371 87 467V494Q87 580 118 670Q178 846 339 927Q429 972 530 972H554Q612 972 700 951T812 929T881 941T948 953Q1019 953 1019
835Q1019 817 1004 728T988 578V479L987 453V325L986 274V-10L989 -164Q989 -261 1004 -294T1061 -356T1102 -414Z" />
<glyph unicode="r" horiz-adv-x="893" d="M588 39Q588 0 407 0H301L259 2L196 3Q90 3 90 41Q90 68 137 98T201 177T218 464T203 753T154 826Q95 865 95 883T116 915Q178 957 326 957H345Q402 957 426 900T465 842T516 870T604 926T719 954T815 922T849 838Q848
786 822 760T766 734T687 758T605 783T533 756T467 658T439 417T463 197T537 106T588 39Z" />
<glyph unicode="s" horiz-adv-x="900" d="M818 374T818 260T724 64T464 -18H437Q248 -18 149 29Q94 55 94 145V170Q94 285 137 285Q173 285 222 218T304 127Q368 83 454 83T582 119T623 216T553 327Q516 354 381 412T178 533T111 713T208 901T447 974H474Q660
974 735 930Q774 907 774 802T724 697Q696 697 648 759T559 848T449 875T337 843T296 751T371 642Q390 629 537 565T739 449Q818 374 818 260Z" />
<glyph unicode="t" horiz-adv-x="756" d="M518 132L670 155Q696 155 696 115T619 31T457 -12H437Q370 -12 316 23T237 109Q194 198 194 446T177 757T131 842Q79 884 79 888Q79 914 106 932Q175 978 181 984T258 1148Q293 1226 337 1226T397 1194Q401 1186 414
1107T453 1006T564 963T650 904T555 847T440 798Q405 747 405 510T427 211Q455 132 518 132Z" />
<glyph unicode="u" horiz-adv-x="1214" d="M1139 75T1139 61T1124 33Q1081 -6 940 -6Q894 -6 869 9T824 66T791 107Q778 106 733 74Q607 -17 492 -17Q491 -17 489 -17H459Q294 -17 220 123Q182 196 182 480T172 793T109 847T54 887Q54 924 89 935Q167 960 288
960Q358 960 377 903Q402 830 402 555T426 220Q467 119 575 119Q631 119 686 148T773 226T804 495T790 773T745 862T715 914Q715 958 950 958Q999 958 1014 937T1029 858L1026 799L1021 533Q1021 273 1036 209T1095 110Z" />
<glyph unicode="v" horiz-adv-x="1109" d="M564 -13H541Q494 -13 448 74Q425 118 307 419T163 766T82 849T27 905Q27 936 71 945T272 954T429 909Q429 906 418 877T407 812Q407 675 563 314Q592 248 604 248T643 308Q804 664 804 802Q804 836 778 874T752 913Q752
956 938 956H962Q1084 956 1084 914Q1084 878 1031 844T950 758Q937 735 817 438T655 64T564 -13Z" />
<glyph unicode="w" horiz-adv-x="1622" d="M1451 949Q1548 949 1548 895Q1548 884 1523 844T1463 732T1337 395T1231 102Q1185 15 1104 15Q1067 15 1029 88T910 369T806 578Q803 578 714 360T608 109Q560 18 492 18T345 250L320 328Q213 672 121 800Q65 878 65
894T81 924Q115 954 201 954H239Q360 954 389 902Q400 882 406 814T423 685T481 476T570 328Q603 328 650 458T697 697Q697 723 687 766T676 825Q676 885 750 918Q786 934 858 934T979 877Q1004 847 1004 791L1002 762L1001 730Q1001 702 1045 557T1108 372T1149
332Q1192 332 1248 497T1305 780L1297 881Q1297 949 1451 949Z" />
<glyph unicode="x" horiz-adv-x="1118" d="M675 89Q675 146 578 281Q534 342 524 342Q496 342 450 283Q360 169 360 118Q360 98 375 67T390 31Q390 -3 256 -3L225 -2H194Q48 -2 48 35Q48 64 117 103T248 217Q425 429 425 467Q425 519 237 750Q198 798 133 845T67
910Q67 956 357 956H387Q472 956 472 915Q457 870 457 864Q457 808 519 721T592 634Q619 634 683 713T747 823T733 881T718 921Q718 953 882 953T1047 909Q1047 880 979 845T863 756Q690 558 690 507Q690 440 917 179Q956 134 1012 104T1068 41Q1068 3 865 3L802
1H739Q657 1 657 41Q675 80 675 89Z" />
<glyph unicode="y" horiz-adv-x="1116" d="M405 828Q405 721 571 320Q594 264 608 264T660 345Q798 637 798 786Q798 829 784 856L773 874Q749 906 749 919Q749 958 876 958H940Q1061 958 1061 912Q1061 886 1012 833T940 729T780 312T565 -190T424 -384T289 -443H263Q211
-443 175 -414T138 -353T163 -302T231 -282L254 -284Q269 -285 300 -285Q370 -285 429 -195T488 -13T203 682Q177 737 127 796T76 878Q76 916 129 931T299 947T417 896Q405 844 405 828Z" />
<glyph unicode="z" horiz-adv-x="987" d="M91 41V62Q91 97 348 455T605 832T479 852T303 831T212 751T132 692Q104 692 104 784Q104 958 167 958H191L244 956Q299 954 327 954L635 951L803 954Q876 954 876 898Q876 857 619 498T361 129Q361 104 509 104T707 131T799
220T878 281Q907 281 907 236V210Q907 76 887 37T802 -2H748L720 -1L553 2L470 3H247L191 2Q141 2 136 3Q91 11 91 41Z" />
<glyph unicode="{" horiz-adv-x="752" d="M596 1515Q663 1515 663 1482T588 1411T489 1325T465 1141L469 1041Q471 991 471 941Q471 740 382 666Q358 646 328 629T297 608Q296 600 320 587Q400 543 434 473T469 233L465 133Q463 83 463 -3T493 -133T589 -210T654
-282Q654 -311 575 -311T429 -285T327 -212Q265 -132 265 90L271 317Q271 427 242 471T146 543T80 616Q80 630 152 666T248 752T272 967L268 1145Q268 1250 286 1318Q338 1515 593 1515H596Z" />
<glyph unicode="|" horiz-adv-x="566" d="M208 -201V-24L209 -4V373L210 413V848L211 908V1266L212 1286V1384L213 1442Q213 1492 228 1503T281 1515H301Q337 1515 348 1501T360 1431V1115L359 1095V758L358 718Q358 718 358 208Q358 -232 354 -268Q348 -324 287
-324H267Q231 -324 220 -309T208 -201Z" />
<glyph unicode="}" horiz-adv-x="759" d="M100 1486Q100 1515 143 1515H168Q333 1515 408 1433T483 1138L476 886Q476 779 507 736T603 663T669 612Q669 569 604 543T508 466T477 237L480 59Q480 -220 321 -281Q246 -310 169 -310T91 -280Q91 -243 165 -205T263
-119T288 88L284 263Q284 409 320 474T419 576Q455 597 455 598T400 639T315 741T285 971L293 1172Q293 1296 265 1338T168 1414T100 1486Z" />
<glyph unicode="~" horiz-adv-x="1132" d="M110 598V620Q110 681 192 753T369 826H380Q444 826 593 761T793 696T919 749T997 803Q1034 803 1034 743T954 611T784 540H773L762 541Q689 541 553 606T358 671T226 615T148 559Q110 559 110 598Z" />
<glyph unicode="&#xa0;" horiz-adv-x="519" />
<glyph unicode="&#xa1;" horiz-adv-x="632" d="M333 1130T358 1130T419 1094T456 1031L459 1012V1000Q459 961 423 931T356 901L347 899H319Q304 902 296 902Q258 902 218 942T177 1019V1038Q177 1072 211 1101T276 1130L303 1133H318Q333 1130 358 1130ZM277
713T319 713T361 610L393 223Q397 175 397 163L401 104Q405 56 405 34L410 -101V-164Q410 -229 390 -258T316 -287H298Q260 -287 244 -259T227 -149V-106L228 -95Q228 -84 228 -73L232 41L233 52L236 123L238 147Q240 171 240 183L243 219Q246 255 246 266L277
637Q277 713 319 713Z" />
<glyph unicode="&#xa2;" horiz-adv-x="1032" d="M539 921H534Q470 921 373 760Q326 682 326 564V512Q326 440 391 311T496 181H501Q509 181 509 214L507 245Q504 269 504 278L501 302Q498 326 498 334L491 402V509L492 518V537L494 565L496 603Q500 639 500 648L502
683Q502 697 522 774T543 890L546 910Q546 921 539 921ZM511 -129H502Q489 -129 474 -72T439 9T373 64L356 76Q131 238 131 512Q131 852 433 979Q481 1000 498 1016T552 1126Q573 1181 610 1181Q638 1181 659 1126T711 1039Q864 880 864 851Q864 754 804 754Q772
754 741 806T666 858Q630 858 615 769Q588 607 588 426T606 216T663 186T763 210T844 234T866 221Q866 168 744 94T598 -10Q597 -12 569 -70T511 -129Z" />
<glyph unicode="&#xa3;" horiz-adv-x="1170" d="M206 -19Q115 -19 115 35Q115 70 180 137T259 230Q291 295 291 399T276 535T209 598T157 677Q157 694 193 716T244 771T275 920T297 1056Q392 1390 775 1390Q902 1390 963 1349T1025 1189Q1025 1107 958 1107Q953
1107 880 1169T719 1232T577 1160T523 954T568 774Q586 755 692 731Q767 714 767 670Q767 637 681 606T572 544T534 446T499 326T481 232T518 167T687 142T940 230Q985 264 1007 264Q1056 264 1056 161T990 14T796 -31H761L402 -2Q350 -2 280 -10T206 -19Z" />
<glyph unicode="&#xa4;" horiz-adv-x="1144" d="M317 691V647Q317 536 394 466T553 395H579Q689 395 760 479T832 665V699Q832 787 760 865T595 944H568Q471 944 394 867T317 691ZM361 298Q326 298 271 247T198 196T156 223T132 268T185 341T239 415T214 491T189
640T214 792T239 872T186 950T132 1024T160 1068T210 1096T276 1048T339 1000T434 1026T572 1052T715 1028T810 1003T877 1051T949 1100T992 1071T1017 1024T962 951T906 879T927 796T949 663T921 521T893 425T952 349T1011 277T984 234T937 208T862 259T790 310T696
282Q620 254 560 254Q559 254 557 253Q498 254 432 276Q364 298 361 298Z" />
<glyph unicode="&#xa5;" horiz-adv-x="1340" d="M816 284T816 227T873 107T931 36Q931 0 851 0H722L637 2H553Q417 2 417 46Q417 58 475 110T533 218T507 297T404 343T326 388Q326 422 408 447T490 516Q490 548 404 580Q346 602 346 646Q346 658 383 696T421 775Q421
862 268 1085Q225 1148 154 1221T83 1300Q83 1335 127 1348T346 1361T520 1321Q520 1302 506 1273T491 1231Q491 1158 649 872Q705 770 738 770Q755 770 803 850Q954 1103 954 1183Q954 1209 940 1241L928 1267Q907 1307 907 1311Q907 1362 1080 1362T1254 1326V1304Q1254
1292 1178 1223T1037 1048Q928 871 928 782Q928 747 960 698T992 635Q992 612 927 574T861 521Q861 477 942 452T1024 392Q1024 376 969 354L938 344L905 336Q864 324 840 304Z" />
<glyph unicode="&#xa6;" horiz-adv-x="537" d="M289 720H245Q199 720 199 839V1387Q199 1442 209 1456T263 1470H290Q328 1470 336 1452T345 1359V1341L344 1333V1086Q344 774 340 753Q334 720 289 720ZM198 198Q198 377 206 395T274 413H283Q324 413 334 396T344
288V-229Q344 -300 338 -322T295 -345H250Q214 -345 206 -323T198 -221V-159L199 -150V127L198 162V198Z" />
<glyph unicode="&#xa7;" horiz-adv-x="1079" d="M338 721V702Q338 608 437 517Q453 502 532 450T654 365T714 332Q757 332 757 434V465Q757 532 698 602Q462 881 422 881H418Q404 881 387 853Q338 773 338 721ZM581 1363Q831 1363 831 1179Q831 1101 754 1101Q724
1101 684 1162T619 1237T538 1251T443 1216T404 1118T462 1002T649 873T850 715T921 534V504Q921 434 878 351T835 254T852 177T870 54T841 -70T747 -179Q637 -256 475 -256T241 -202T169 -70Q169 41 249 41Q279 41 324 -25T391 -106Q436 -137 511 -137T629 -96T671
4T607 124Q577 153 450 234T256 397T188 612Q188 689 228 754T268 835T250 884Q200 984 200 1057Q200 1190 299 1276T581 1363Z" />
<glyph unicode="&#xa8;" horiz-adv-x="887" d="M248 1148H228Q183 1148 152 1179T121 1242Q119 1250 119 1254L118 1270L119 1274Q119 1326 155 1356T238 1387H242Q289 1387 324 1358T359 1281V1257Q359 1208 323 1178T248 1148ZM612 1151Q584 1151 555 1180T525
1238L522 1258V1278Q522 1321 555 1354T637 1387H649Q699 1387 731 1355T763 1274V1265Q763 1209 728 1180T667 1151L643 1148H635L631 1149H623Q615 1151 612 1151Z" />
<glyph unicode="&#xa9;" horiz-adv-x="1605" d="M774 69H813Q926 69 1032 117Q1238 210 1325 427Q1372 545 1372 672L1371 692V712Q1371 821 1323 930T1207 1110T1033 1228T819 1277H800Q680 1277 567 1232T374 1109Q195 937 195 675L196 654V635Q196 542 239
435T372 242T569 112T774 69ZM1048 867Q1045 867 964 933T791 999T642 910T584 673T653 436T835 348Q904 348 984 398T1072 448Q1093 448 1093 423T1065 353Q996 246 814 246Q529 246 430 485Q397 564 397 641V683Q397 862 514 979T811 1097T1049 1058Q1087 1033
1087 930Q1087 867 1048 867ZM1500 680V657Q1500 537 1449 406T1298 178T1066 30T794 -22H771Q638 -22 508 29Q235 135 126 407Q78 527 78 644V690Q78 820 133 950Q242 1206 499 1312Q636 1369 784 1369H807Q945 1369 1071 1318T1291 1179T1443 956T1500 680Z"
/>
<glyph unicode="&#xaa;" horiz-adv-x="838" d="M248 873Q248 806 325 806H359Q371 809 379 809Q432 809 455 855T478 964L479 971Q479 975 479 979L481 1002V1013Q481 1035 466 1035H459Q435 1029 420 1029Q354 1029 303 986T251 910L248 889V873ZM286 706H253Q187
706 137 749T87 864V881Q87 1017 284 1070Q299 1074 360 1085T438 1106Q470 1125 470 1174Q470 1290 356 1290Q315 1290 269 1236T172 1181T122 1251Q122 1299 181 1331Q274 1381 371 1381H406Q549 1381 605 1298Q646 1238 646 1059T656 850T703 805T739 774V763Q739
746 706 728T620 709T540 727Q537 729 517 751T490 774T412 740T286 706Z" />
<glyph unicode="&#xab;" horiz-adv-x="1050" d="M543 888Q543 866 409 696T275 521T408 348T541 148Q541 109 497 109Q475 109 275 298T74 520T275 743T497 932Q543 932 543 888ZM467 522Q467 546 652 731T867 916Q913 916 913 874Q913 846 791 689T669 523Q669
513 732 432Q910 203 911 164Q911 126 864 126Q848 126 658 304T467 522Z" />
<glyph unicode="&#xac;" horiz-adv-x="1165" d="M1046 654V331Q1046 286 1002 286H989Q935 286 924 316T912 438Q912 593 862 614Q841 623 481 623H159Q104 623 104 671V685Q104 750 139 754Q165 757 574 757L701 758H743L758 757L815 758H979Q1046 758 1046 654Z" />
<glyph unicode="&#xad;" horiz-adv-x="816" d="M709 594V558Q709 500 680 490T401 479H379L357 478H335L313 477H292L270 476H234L212 475H155Q116 475 116 520V541Q116 609 149 617T424 626L620 631H670Q709 631 709 594Z" />
<glyph unicode="&#xae;" horiz-adv-x="1506" d="M731 1089H688Q652 1089 652 1055V1032L653 1028V943L652 925V893Q652 805 684 805H721Q736 808 748 808L766 811Q787 811 828 840T869 917V951L865 979Q865 1022 825 1055T731 1089ZM210 807V772Q210 671 252 570Q296
468 374 396Q533 250 750 250H768Q870 250 974 294T1148 418Q1284 572 1284 774V791Q1284 887 1240 989Q1157 1182 947 1271Q852 1311 726 1311L708 1310Q612 1310 516 1270Q324 1189 245 988Q210 898 210 807ZM751 1160Q870 1160 936 1112T1003 970T901 801Q869
777 869 768T930 657T1019 531Q1077 481 1077 475Q1077 436 981 436Q927 436 900 465T823 589T756 706T699 729Q652 729 652 606Q652 555 662 533T686 488T701 459Q701 433 638 433H585L567 434H549Q421 434 421 470Q421 487 452 503T489 538T495 783T489 1044T460
1097T436 1127Q436 1159 641 1159L714 1160H751ZM1399 785V764Q1398 647 1348 531Q1245 294 990 193Q879 149 748 149L727 150H706Q591 150 471 208Q237 321 153 560Q118 660 118 779L119 800Q119 802 119 805Q119 918 164 1028Q255 1252 473 1355Q598 1414 723
1414H765Q1024 1414 1224 1222Q1300 1149 1349 1030T1399 785Z" />
<glyph unicode="&#xaf;" horiz-adv-x="851" d="M157 1321H716Q760 1321 760 1277L759 1269V1261Q759 1193 727 1193L697 1191H239L216 1190H162Q103 1190 103 1227V1259Q103 1321 157 1321Z" />
<glyph unicode="&#xb0;" horiz-adv-x="769" d="M386 1316H360Q309 1316 267 1268T225 1158V1129Q225 1069 268 1020T362 971H387Q433 971 478 1016T523 1135V1152Q523 1218 480 1267T386 1316ZM357 1403H392Q489 1403 566 1332T644 1164V1129Q644 1026 561 956T400
886L383 884H356Q260 884 182 955T104 1124V1150Q104 1236 165 1308Q245 1403 357 1403Z" />
<glyph unicode="&#xb1;" horiz-adv-x="1126" d="M967 196Q1014 196 1014 160V119Q1014 73 978 67Q954 63 542 63H358L318 62H178Q120 62 120 99V140Q120 184 142 189T581 194L815 196H967ZM1012 736V702Q1012 656 976 647Q955 642 806 642T645 631T633 476T624
314T565 295T506 314T497 477T479 633Q470 640 319 640T149 644Q119 650 119 684V700Q119 755 139 764T316 774T485 787T497 947T506 1109T559 1125H577Q617 1125 624 1106T632 943T649 783Q656 776 834 776T1012 736Z" />
<glyph unicode="&#xb2;" horiz-adv-x="832" d="M215 634Q113 634 113 680T144 767T276 901T425 1063T474 1195T441 1290T354 1322T248 1255T161 1187Q115 1187 115 1242Q115 1319 184 1374T381 1429H403Q513 1429 583 1371T654 1221T584 1041Q539 985 422 890T304
777T399 759T531 771T607 810T651 837Q685 837 685 784Q685 678 647 648Q624 630 498 630H478L458 631L397 632H274Q234 634 215 634Z" />
<glyph unicode="&#xb3;" horiz-adv-x="828" d="M396 1428Q500 1428 564 1381T629 1252T547 1097Q507 1060 507 1058Q508 1056 562 1024Q678 953 678 847V827Q678 737 594 667T378 597H337Q254 597 183 634T111 723V738Q111 785 157 785Q193 785 246 743T361 700T458
739T494 840Q494 962 351 985Q278 997 278 1031Q278 1058 335 1080T423 1135T453 1217T425 1292T348 1318T247 1273T167 1228Q131 1228 131 1283T196 1383T374 1428H396Z" />
<glyph unicode="&#xb4;" horiz-adv-x="746" d="M264 1120H243Q207 1120 207 1149V1154Q207 1195 387 1426Q436 1489 502 1489H520Q608 1489 608 1434V1424Q608 1392 455 1256T264 1120Z" />
<glyph unicode="&#xb5;" horiz-adv-x="1273" d="M861 933T914 933T1008 874Q1047 817 1047 677Q1047 673 1047 670Q1047 433 1111 263Q1147 166 1147 124V105Q1147 63 1117 37T1023 11Q1012 11 907 44T776 77T718 65L691 52Q579 -1 462 -1Q386 -1 386 -150L389
-230Q389 -309 356 -356T258 -403Q210 -403 190 -325T169 -65L184 466Q186 536 186 598T165 734T144 834Q144 969 317 969Q376 969 401 927T426 770Q426 747 424 700L418 592Q412 446 412 375Q412 128 570 128Q639 128 699 165T795 265T831 630L835 826Q835 890
848 911Z" />
<glyph unicode="&#xb6;" horiz-adv-x="1205" d="M995 -71Q995 -164 912 -164Q893 -164 867 -139T833 -55T822 140T799 559T779 982T764 1137T703 1152T650 1104L649 1070L650 1034Q650 1034 650 948Q650 898 660 718T670 290T656 -12Q630 -111 540 -111Q478 -111
478 -30Q478 -4 490 46T502 157Q502 454 434 588Q408 638 314 696T183 798Q105 892 105 1010Q105 1354 440 1405Q545 1421 802 1421L842 1420Q993 1420 1028 1408T1063 1362Q1063 1357 1038 1316Q968 1201 967 1016L965 977L963 899Q962 860 962 790V579L963 499V232Q963
106 967 79T983 1T995 -71Z" />
<glyph unicode="&#xb7;" horiz-adv-x="535" d="M283 494H249Q204 494 165 528T125 618V646Q125 696 163 734T253 772H286Q337 772 374 735T411 643V624Q411 576 376 535T283 494Z" />
<glyph unicode="&#xb8;" horiz-adv-x="734" d="M337 -449H310Q199 -449 199 -403V-396Q199 -396 199 -395Q199 -393 199 -390Q199 -354 272 -354Q406 -354 407 -265Q407 -229 347 -197T286 -133Q286 -79 322 -16Q336 9 375 9H383Q416 9 416 -46Q416 -76 500 -121T585
-246V-263Q585 -338 513 -393T337 -449Z" />
<glyph unicode="&#xb9;" horiz-adv-x="705" d="M463 629H222Q136 629 136 668Q136 686 186 712T248 774T259 1009T244 1236T175 1271T120 1309Q120 1331 152 1346Q326 1425 396 1425Q440 1425 440 1335L438 1296Q437 1283 437 1270L435 1244L432 1151V1030Q432
819 441 785T500 716T550 668Q550 629 463 629Z" />
<glyph unicode="&#xba;" horiz-adv-x="861" d="M418 1313H392Q343 1313 303 1256T263 1125L260 1094Q260 1086 260 1078L259 1053L260 1045Q260 1037 260 1029L262 998Q262 915 308 852T408 789H428Q484 789 522 848T560 1017V1057L559 1065L558 1088L555 1125Q555
1193 513 1253T418 1313ZM398 1391H444Q579 1391 666 1297T754 1061V1050Q754 909 675 819Q628 766 560 739T427 711H404Q260 711 174 803T88 1029V1064Q88 1200 177 1295T398 1391Z" />
<glyph unicode="&#xbb;" horiz-adv-x="1051" d="M175 916Q195 916 379 732T564 520T380 309T169 125Q123 125 123 168Q123 198 244 354T366 519T243 685T120 875Q120 916 167 916H175ZM533 110Q491 110 491 148T624 346T757 520T622 697T487 889V898Q487 933 525
933H534Q554 933 754 744T955 520Q955 498 761 304T542 110H533Z" />
<glyph unicode="&#xbc;" horiz-adv-x="1662" d="M1052 310H1093L1097 311H1102Q1206 311 1210 321T1215 415V524L1216 539V548L1217 562Q1217 569 1217 576L1218 595V626Q1218 631 1216 631Q1206 631 1170 572T1112 485T1077 435T1051 397T1031 368T1010 337T996
317V315Q996 310 1052 310ZM304 574H265Q109 574 109 614Q109 630 158 656T219 728T231 972T217 1200T152 1239T101 1276Q101 1297 132 1313Q277 1389 363 1389Q414 1389 414 1295L412 1269L408 1164V1137L407 1123V1016Q407 757 418 723T458 669Q516 631 516 620V611Q516
574 304 574ZM393 -25H377Q325 -25 325 -3T363 86Q656 603 1091 1267Q1161 1374 1208 1374H1224Q1275 1374 1275 1351V1337Q1275 1329 1244 1277Q721 405 519 97Q439 -25 393 -25ZM1253 -17Q1151 -17 1151 49Q1151 63 1174 92T1197 150T1173 192T1052 206Q888 206
888 260Q888 325 1172 684Q1269 807 1321 807H1335Q1378 807 1390 773Q1394 761 1394 585T1405 378T1461 321T1506 267Q1506 264 1455 213Q1427 185 1427 133Q1427 125 1443 100T1460 63Q1460 -15 1309 -15L1281 -17H1253Z" />
<glyph unicode="&#xbd;" horiz-adv-x="1738" d="M162 577Q116 577 116 618Q116 633 179 666Q217 686 230 728T243 965T230 1189T163 1232T110 1268T143 1307Q305 1388 373 1388H385Q423 1388 423 1306L420 1241L418 1214L416 1161V1066L415 1039V892Q415 766 426
732T481 667T526 619V611Q526 578 294 578L267 577H162ZM447 -48T389 -48T330 -24V-11Q330 4 402 117T765 720T1113 1298T1226 1385T1283 1361V1348Q1283 1339 1253 1287Q822 545 515 60Q447 -48 389 -48ZM1120 -4Q1019 -4 1019 40Q1019 99 1157 237T1337 437T1379
560T1349 654T1265 687T1154 622T1071 556Q1021 556 1021 629T1106 752T1305 801T1490 744T1562 570Q1562 496 1494 412Q1459 369 1338 264T1217 145Q1217 121 1314 121T1444 130T1514 164T1556 189Q1590 189 1590 144V125Q1590 41 1551 9Q1528 -10 1444 -10H1383L1219
-6H1179Q1139 -4 1120 -4Z" />
<glyph unicode="&#xbe;" horiz-adv-x="1738" d="M1294 625Q1294 630 1291 630T1268 600T1158 448T1067 319T1074 311H1091L1096 312H1178Q1289 312 1289 339Q1291 347 1291 352L1293 381Q1293 386 1293 391L1294 405L1293 410V424L1292 433V456L1291 465V474L1290
488V547L1294 608V625ZM373 1391Q476 1391 544 1347T613 1236T589 1130T524 1054T483 1014T532 987T619 918T658 808V788Q658 680 562 614T347 547H306Q207 547 152 587T96 678T153 728Q171 728 221 687T332 645T431 688T469 793T435 889T332 941T264 986T316 1035Q430
1085 430 1179Q430 1221 403 1249T331 1278T235 1237T154 1195Q120 1195 120 1249T187 1347T352 1391H373ZM1246 1373T1302 1373T1359 1338Q1359 1325 1294 1217Q751 312 580 69Q512 -27 458 -27T403 9Q403 21 431 68Q867 795 1183 1277Q1246 1373 1302 1373ZM1537
52Q1537 -19 1344 -19H1330Q1281 -19 1254 0T1227 41T1249 92T1272 150T1245 193T1130 206Q964 206 964 258V271Q964 339 1267 706Q1350 807 1405 807T1471 762Q1473 753 1473 582T1483 378T1539 322T1585 267Q1585 256 1545 222T1505 140Q1505 124 1521 100T1537
52Z" />
<glyph unicode="&#xbf;" horiz-adv-x="963" d="M394 1043V1059Q394 1108 439 1140T525 1172H540Q595 1172 638 1135T682 1040V1025Q682 980 640 932T544 883H539Q473 883 434 938T394 1043ZM118 63Q118 167 169 249T325 420T450 544T472 655T530 733Q565 733 585
680T605 558T578 439T479 311T379 178T350 31Q350 -22 393 -63T512 -105T659 -38T762 30Q830 30 830 -55V-72Q830 -158 764 -199Q666 -260 503 -260T227 -171Q176 -131 147 -73T118 44V63Z" />
<glyph unicode="&#xc0;" horiz-adv-x="1436" d="M587 574H783Q843 574 843 590Q843 594 806 705L796 735L793 743L790 750L780 780L774 795L769 810L722 935Q684 1031 669 1076T648 1122T619 1060Q460 615 460 596V590Q460 574 587 574ZM776 1478H759Q690 1478
502 1624Q394 1708 394 1742V1748L395 1753Q395 1769 422 1790T490 1811H507Q517 1809 523 1809Q575 1809 637 1739Q811 1543 811 1519V1505Q811 1478 776 1478ZM13 48Q13 66 89 118Q134 149 163 211T230 378T366 728T507 1116T569 1294Q608 1366 674 1366H702Q772
1366 848 1222Q850 1218 1042 712T1244 185Q1269 133 1329 101T1389 34Q1389 -5 1227 -5H1109L1079 -4Q1049 -3 1021 -3Q913 -3 913 37Q913 50 940 88T967 170T934 307T874 430T654 460T432 443T366 338T328 169Q328 128 370 87T413 26Q413 1 283 1L254 2Q225 3
197 3Q13 3 13 48Z" />
<glyph unicode="&#xc1;" horiz-adv-x="1437" d="M475 566H497L505 567L656 572Q839 572 839 579V584Q839 629 682 1069Q662 1126 655 1126Q653 1126 619 1049Q455 674 455 578Q455 566 475 566ZM631 1469H620Q582 1469 582 1507V1512Q582 1527 609 1562Q742 1733
769 1757Q834 1815 889 1815H907Q947 1815 978 1791T1009 1748V1737Q1009 1692 953 1653Q690 1469 631 1469ZM28 66Q28 86 89 128T178 232T242 394T348 679T490 1071T575 1303Q615 1371 680 1371H707Q783 1371 872 1174Q876 1165 1043 705T1233 198T1314 120T1373
70Q1373 34 1341 22T1122 9H1034Q904 9 904 49Q904 56 932 92T960 166T927 299T865 424T653 454T438 435T373 330T339 187T377 87T416 34Q416 12 317 12Q28 12 28 66Z" />
<glyph unicode="&#xc2;" horiz-adv-x="1439" d="M527 579H725Q842 579 842 595Q842 601 749 861T651 1122Q641 1122 620 1060T527 817T455 598V592Q455 579 527 579ZM694 1806H711Q762 1806 809 1751Q1013 1510 1013 1500Q1013 1468 971 1468H963Q906 1468 808
1551T700 1634T592 1552T425 1469Q389 1469 389 1499V1505Q389 1548 607 1766Q647 1806 694 1806ZM19 54Q19 69 98 127Q149 165 190 261Q193 269 241 402T357 710T490 1078T562 1284Q605 1377 680 1377Q729 1377 763 1352T840 1245T1038 726T1224 222T1287 128Q1295
122 1338 101T1381 58Q1381 14 1333 6T1127 -3H1067Q906 -3 906 39Q906 48 934 83T962 162T928 301T866 425T652 453T434 434T370 327T336 162Q336 123 367 90L417 36Q417 0 313 0Q124 0 72 12T19 54Z" />
<glyph unicode="&#xc3;" horiz-adv-x="1434" d="M528 578H655L663 579Q844 579 844 595Q844 597 751 859T649 1121T625 1071T532 831T456 598V592Q456 578 528 578ZM562 1746H586Q640 1746 725 1701T855 1656T946 1695T1008 1734Q1045 1734 1045 1701Q1045 1631
977 1569T845 1506H829L820 1507Q776 1507 682 1551T548 1596T457 1557T396 1518Q360 1518 360 1551V1559Q360 1618 429 1682T562 1746ZM12 50Q12 78 67 108T150 187T228 378T363 725T498 1093T559 1272Q603 1368 676 1368H704Q788 1368 874 1173Q887 1144 964
924L1061 664Q1234 200 1257 164T1334 100T1389 55V35Q1389 -3 1197 -3H1109L1079 -2Q1049 -1 1020 -1Q913 -1 913 39Q913 49 940 89T967 173T934 309T875 432T655 462T432 445T366 340T328 190T360 98Q413 47 413 28Q413 3 283 3L255 4Q227 5 197 5Q12 5 12 50Z"
/>
<glyph unicode="&#xc4;" horiz-adv-x="1436" d="M576 574H638L646 575H654Q836 575 836 588V594Q836 603 788 747Q774 785 766 809T752 851L729 914L694 1010L692 1017Q680 1048 668 1086T650 1125T622 1067Q456 652 456 593Q456 574 576 574ZM517 1515H489Q481
1517 478 1517Q447 1517 417 1547T386 1621V1645Q386 1686 419 1719T503 1753H511Q555 1753 590 1725T626 1650V1622Q623 1610 623 1594T592 1546T517 1515ZM780 1633L782 1652Q782 1680 812 1710T872 1741L892 1744H911L934 1740Q951 1740 982 1714T1014 1652L1017
1628V1616Q1017 1571 985 1539T909 1506H885Q837 1506 808 1540T779 1617V1629L780 1633ZM14 50Q14 69 90 120Q137 152 169 224T230 380T364 726T509 1123T569 1296Q607 1368 674 1368H702Q787 1368 874 1173Q890 1137 956 949T1084 605T1189 326T1255 166T1334
100T1389 55V35Q1389 -3 1227 -3H1109L1079 -2Q1049 -1 1021 -1Q913 -1 913 39Q913 49 940 89T968 172T934 309T875 433T655 462T431 444T365 337T328 171Q328 131 370 90T413 27T254 4Q14 4 14 50Z" />
<glyph unicode="&#xc5;" horiz-adv-x="1439" d="M579 1633V1608Q579 1571 608 1542T666 1513L673 1511H703Q715 1514 727 1514T768 1542T797 1612V1627L796 1630V1637Q794 1645 794 1657T765 1698T702 1727H672Q664 1725 650 1725T608 1697T579 1633ZM498 549H513L521
550L644 553Q830 553 830 560Q830 575 754 803L712 929Q669 1037 660 1070T644 1104T628 1067T605 997Q594 964 584 934T567 887T541 812L459 566V560Q459 549 498 549ZM481 1603V1629Q481 1704 542 1758T686 1812H693Q784 1812 839 1757T895 1628V1615Q895 1535
834 1481T696 1426H669Q655 1428 649 1428Q583 1428 532 1485T481 1603ZM693 1353Q739 1353 780 1306T850 1201T937 976T1100 521T1214 212Q1250 132 1295 106Q1370 63 1370 34Q1370 -12 1121 -12H1092L1064 -11Q896 -11 896 26Q896 38 925 74T954 152T921 289T869
410Q842 446 654 446T436 429T369 322T331 136Q331 108 369 74T408 16T315 -8Q85 -8 52 10T18 47T80 112T180 245Q195 280 235 396T359 722T488 1082T548 1259Q593 1353 693 1353Z" />
<glyph unicode="&#xc6;" horiz-adv-x="1934" d="M852 613Q896 613 904 629T912 753L913 769V838L911 862L910 870V922L912 955Q912 963 912 971L917 1068Q917 1076 917 1084L918 1107Q918 1115 918 1123L919 1138Q919 1189 910 1189H905Q880 1189 815 1068Q791
1023 751 953T681 819T602 679Q572 626 572 625Q572 615 631 615L711 617L741 616Q749 615 758 615L815 613H852ZM1509 861Q1572 861 1572 677Q1572 547 1518 547Q1498 547 1434 584T1306 622T1202 584T1161 465Q1161 302 1223 201Q1262 137 1366 137Q1567 137
1730 247Q1760 267 1769 267Q1807 267 1807 188T1739 55T1510 2H1402L1347 3H1293Q1006 3 930 17T853 82Q853 87 889 158T925 330T887 474T766 516Q561 516 492 444Q441 391 401 297T361 169T381 99T402 43Q402 5 220 5T38 52Q38 82 107 136T233 288Q429 618 678
1080Q718 1154 722 1181T729 1258T740 1321Q761 1354 829 1363T1046 1372T1249 1373L1413 1375Q1585 1375 1650 1339Q1735 1292 1735 1181Q1735 1137 1709 1137Q1698 1137 1642 1163Q1462 1246 1352 1246T1206 1195Q1154 1121 1154 948Q1154 868 1195 828T1301
788T1426 824T1509 861Z" />
<glyph unicode="&#xc7;" horiz-adv-x="1380" d="M922 -271V-287Q922 -347 844 -399T660 -452L651 -451Q563 -451 563 -412V-405Q563 -361 579 -352T640 -342T713 -317T742 -243T697 -163T652 -110Q652 -105 680 -42Q579 -35 479 2Q356 48 268 142Q90 333 90 630V665Q90
806 145 938Q311 1334 744 1334Q823 1334 907 1312L1071 1269Q1240 1269 1240 1090Q1240 993 1175 993Q1173 993 1068 1049L1044 1062L996 1094Q961 1115 880 1148T716 1182Q533 1182 434 1020Q349 883 349 635Q350 408 468 252Q520 184 597 150T759 116T943 151T1116
231T1203 276Q1242 276 1242 236V213Q1242 191 1214 138T1138 56Q1090 28 970 -8Q872 -37 771 -43Q771 -45 770 -47Q770 -60 813 -89T889 -169T922 -271Z" />
<glyph unicode="&#xc8;" horiz-adv-x="1275" d="M351 1756V1766Q351 1785 382 1805T452 1826H463Q506 1826 566 1780T740 1586Q771 1546 771 1529L770 1524V1520Q770 1491 736 1491H725Q649 1491 451 1645Q351 1723 351 1756ZM105 43Q105 63 162 103T231 211T243
703T226 1181T154 1266T99 1319Q99 1356 168 1363Q196 1366 634 1366L935 1369Q1027 1369 1071 1325T1115 1175Q1115 1118 1092 1118T1024 1151T877 1215T645 1246Q562 1246 520 1164T478 969T520 817T632 777T728 790T793 837T845 872Q893 872 910 823Q921 790
921 694Q921 527 856 527H855Q837 527 781 578T635 629T500 573Q476 543 476 427Q476 240 545 152Q575 114 683 114T978 177Q1018 190 1074 228T1134 267Q1166 267 1166 230Q1166 119 1127 56T979 -7L937 -6L460 -3L248 -6Q105 -6 105 43Z" />
<glyph unicode="&#xc9;" horiz-adv-x="1275" d="M526 1509V1523Q526 1548 691 1737Q765 1821 822 1821H846Q874 1821 907 1803T941 1769V1759Q941 1735 796 1606T584 1477H568Q526 1477 526 1509ZM854 879Q927 879 927 738T910 569T858 540Q846 540 788 591T638
642T507 584Q487 554 487 417T538 192Q571 135 645 135Q789 135 894 166T1043 225Q1044 225 1082 255T1135 285Q1160 285 1160 241Q1160 124 1117 65T963 5H574Q191 5 145 14T98 58Q98 81 158 119T228 224T238 698T227 1167T180 1252Q96 1310 96 1327Q96 1362 167
1371Q200 1375 588 1375L674 1376H932Q1020 1376 1064 1330T1109 1178Q1109 1128 1086 1128Q1073 1128 1030 1154T942 1194Q790 1243 691 1243T549 1183Q492 1104 492 953Q492 787 653 787Q713 787 737 800T798 846T854 879Z" />
<glyph unicode="&#xca;" horiz-adv-x="1275" d="M647 1817H656Q709 1817 832 1671T956 1523V1517Q956 1490 909 1490H902Q857 1490 761 1571T653 1653Q642 1652 603 1622L537 1572Q529 1566 523 1561Q424 1490 381 1490T338 1522Q338 1574 556 1774Q603 1817 647
1817ZM643 120Q793 120 902 152T1033 198T1091 244T1140 275Q1166 275 1166 230Q1166 115 1124 52T969 -11H576Q190 -11 143 -2T96 43Q96 63 155 103T225 207T236 685T224 1161T177 1248Q93 1309 93 1323Q93 1360 163 1369Q193 1373 588 1373L849 1374Q999 1374
1041 1349Q1113 1306 1113 1174Q1113 1124 1090 1124Q1074 1124 1021 1151T944 1187Q792 1240 692 1240T541 1171T489 946Q489 853 534 815T646 777T735 789T796 836T860 871T907 842T928 700T911 558T860 530Q853 530 789 581T635 632T505 574Q485 546 485 410T536
177Q566 120 643 120Z" />
<glyph unicode="&#xcb;" horiz-adv-x="1275" d="M430 1517Q385 1517 354 1548T322 1624V1644Q322 1689 353 1720T412 1751L439 1755H456Q465 1752 484 1752T531 1724T560 1664L563 1644V1628Q563 1583 532 1552T469 1520L450 1517H430ZM815 1520T803 1520T758
1548T724 1621V1649Q724 1689 757 1722T834 1755H858Q902 1755 933 1724T965 1648V1628Q965 1583 934 1552T874 1521L847 1517H835L831 1518H823Q815 1520 803 1520ZM102 42Q102 63 159 103T228 210T240 700T223 1179T151 1265T96 1318Q96 1355 165 1362Q193 1365
631 1365L932 1368Q1024 1368 1068 1324T1112 1174Q1112 1117 1089 1117T1021 1150T874 1214T642 1245Q559 1245 517 1163T475 968T517 816T629 776T725 789T790 836T842 871Q890 871 904 829Q918 786 918 692Q918 526 852 526Q834 526 778 577T632 628T497 572Q473
542 473 426Q473 239 542 151Q572 113 680 113T975 176Q1015 189 1071 227T1131 266Q1163 266 1163 229Q1163 118 1124 55T976 -8L934 -7L457 -4L245 -7Q102 -7 102 42Z" />
<glyph unicode="&#xcc;" horiz-adv-x="767" d="M87 1757V1772Q87 1785 114 1806T181 1828H204Q251 1828 318 1768Q508 1599 508 1531V1522Q508 1493 474 1493H457Q384 1493 178 1653Q87 1724 87 1757ZM499 1111T499 679T514 183T571 96Q653 51 653 26Q653 -11
564 -11H542L520 -10L454 -9H367L258 -11H192Q108 -11 108 31Q108 51 181 93Q231 122 246 186T262 689T246 1187T169 1277T109 1337Q109 1373 395 1373L547 1375H569Q652 1375 652 1332Q652 1310 579 1269Q530 1241 515 1176Z" />
<glyph unicode="&#xcd;" horiz-adv-x="767" d="M256 1509V1519Q256 1530 316 1616T446 1764T566 1826T643 1803T670 1761V1751Q670 1708 553 1626Q340 1477 307 1477H286Q256 1477 256 1509ZM655 1336Q655 1314 595 1279T518 1172T501 688T516 206T575 111Q656
65 656 41Q656 5 585 5H518L496 6H451L407 7H362L251 5H185Q98 5 98 46Q98 65 170 108Q220 138 236 208T253 703T231 1206Q218 1251 159 1281T100 1344T393 1377L503 1378H570Q655 1378 655 1336Z" />
<glyph unicode="&#xce;" horiz-adv-x="769" d="M376 1819H392Q442 1819 542 1701Q689 1527 689 1523Q689 1492 644 1492T492 1574T381 1656T270 1575T119 1493T73 1520V1526Q73 1561 291 1779Q331 1819 376 1819ZM504 1098T504 678T521 189T579 96Q661 48 661
40V27Q661 -10 590 -10H500L478 -9H366L277 -10H165Q100 -10 100 32Q100 52 173 94Q220 121 238 186T256 674T241 1170T181 1267Q100 1311 100 1338Q100 1375 193 1375H216L238 1374L507 1375H595Q659 1375 659 1332Q659 1310 587 1269Q538 1241 521 1170Z" />
<glyph unicode="&#xcf;" horiz-adv-x="766" d="M169 1519Q123 1519 93 1549T63 1608L60 1628V1648Q63 1660 63 1667Q63 1698 98 1727T172 1756H188Q243 1756 272 1721T301 1642V1634Q301 1585 269 1553T204 1521Q196 1519 193 1519L181 1518H177L173 1519H169ZM463
1646L465 1665Q465 1698 500 1727T572 1756H596Q635 1756 669 1728T703 1649V1629Q703 1584 671 1552T597 1519H565Q532 1519 499 1547T465 1610L462 1634V1642L463 1646ZM651 1331Q651 1311 590 1275T513 1174T498 679T513 184T570 96Q652 48 652 26Q652 -11 585
-11H498L476 -10H367L279 -11H170Q107 -11 107 30Q107 52 181 93Q230 120 245 185T261 679T248 1174T190 1266Q108 1312 108 1337Q108 1373 394 1373L502 1374H590Q651 1374 651 1331Z" />
<glyph unicode="&#xd0;" horiz-adv-x="1519" d="M609 93H664Q753 93 840 130T989 241Q1119 399 1119 625V710Q1119 853 1087 953T983 1133T823 1244T621 1276L603 1277Q521 1277 504 1246T486 1021T502 798Q526 755 673 755Q733 755 755 741T778 685T657 634T509
593T482 325L481 287V249Q481 147 505 120T609 93ZM278 524Q278 612 253 631Q242 639 197 645T146 654Q120 667 120 705Q120 751 174 762Q255 778 259 782Q277 796 277 868L275 921L274 1000Q274 1174 252 1216T174 1280T118 1333Q118 1375 438 1375L519 1378L628
1379H683Q683 1379 689 1379Q851 1379 984 1330Q1250 1232 1346 984Q1394 860 1394 712V683Q1394 526 1336 391Q1223 129 957 40Q822 -5 660 -5H521L493 -4L386 -2L361 -1H310L260 1Q235 2 210 2Q116 2 116 35Q116 73 162 95Q233 130 248 162Q278 228 278 524Z"
/>
<glyph unicode="&#xd1;" horiz-adv-x="1572" d="M649 1759H666Q708 1759 808 1715T946 1670T1036 1709T1094 1748Q1134 1748 1134 1710Q1134 1646 1067 1584T935 1521H910Q856 1521 766 1566T636 1611T540 1572T473 1532Q440 1532 440 1569Q440 1638 511 1698T649
1759ZM1252 12Q1174 12 1046 168Q999 226 875 398L792 516Q721 616 707 635Q401 1046 381 1046Q368 1046 368 748Q368 258 440 124Q487 37 487 35Q487 -5 268 -5H222Q81 -5 81 35Q81 65 147 99T228 199T242 676T228 1146T150 1254T87 1316Q87 1364 213 1364T389
1346T473 1292T679 1033T924 710L1012 592Q1166 386 1175 386Q1198 386 1198 732T1168 1179Q1155 1223 1111 1267T1067 1330Q1067 1365 1196 1365H1290Q1465 1365 1465 1323Q1465 1297 1411 1249T1342 1157T1327 974L1324 829Q1323 781 1323 685L1321 492V395L1320
70Q1309 12 1252 12Z" />
<glyph unicode="&#xd2;" horiz-adv-x="1529" d="M345 763V728Q345 465 457 294T755 122Q1027 122 1117 425Q1147 526 1147 643V713Q1146 834 1114 946Q1049 1169 912 1249Q827 1298 745 1298H711Q640 1298 568 1264Q429 1198 375 993Q345 880 345 763ZM438 1727V1744Q438
1764 471 1787T540 1810H564Q627 1810 684 1746Q865 1542 865 1490V1479Q865 1448 827 1448H816L811 1449Q755 1449 597 1560T438 1727ZM1410 694V671Q1410 528 1362 396Q1265 131 1036 26Q902 -36 758 -36H735Q604 -36 486 10Q248 101 153 361Q98 511 98 668V691Q98
836 148 972Q250 1250 505 1349Q619 1393 740 1393H787Q914 1393 1032 1343Q1279 1238 1368 960Q1410 828 1410 694Z" />
<glyph unicode="&#xd3;" horiz-adv-x="1527" d="M344 735V699Q344 433 457 269Q504 200 580 161T736 121H753Q936 121 1042 278Q1149 435 1149 706V724Q1149 847 1120 959Q1065 1171 924 1254Q846 1299 758 1299H724Q722 1299 721 1299Q648 1299 575 1258Q434
1179 374 968Q344 865 344 735ZM617 1485V1501Q617 1564 799 1746Q865 1812 931 1812H937L943 1811Q987 1811 1014 1788T1041 1740L1040 1735Q1040 1669 883 1559T671 1448T617 1485ZM1408 713V666Q1408 535 1362 400T1224 166T1012 17T777 -34H707Q589 -34 468
18Q238 118 146 386Q100 521 100 648V695Q100 825 144 959T276 1190Q458 1392 745 1392H768Q1046 1392 1220 1212Q1302 1128 1355 992T1408 713Z" />
<glyph unicode="&#xd4;" horiz-adv-x="1530" d="M335 756V722Q335 464 448 298T745 132Q1029 132 1124 446Q1157 556 1157 663V732Q1157 735 1157 738Q1157 837 1124 950Q1059 1173 907 1257Q830 1300 753 1300H736Q561 1300 450 1153Q402 1089 369 978T335 756ZM1002
1459H987Q954 1459 850 1531T743 1603T691 1570Q531 1460 481 1460T430 1488V1495Q430 1525 637 1749Q689 1805 736 1805H753Q799 1805 843 1757Q1047 1534 1047 1497T1002 1459ZM1410 713V666Q1410 526 1359 389T1216 157T1004 14T753 -34H729Q604 -34 487 11T283
148T148 375T98 650V697Q98 830 145 968T281 1202T491 1347T742 1396H766Q1039 1396 1221 1214Q1309 1126 1359 988T1410 713Z" />
<glyph unicode="&#xd5;" horiz-adv-x="1529" d="M336 759V708Q336 587 370 476Q437 254 572 178Q658 130 740 130H757Q939 130 1048 281T1157 685V702Q1157 837 1125 947Q1060 1171 921 1248Q835 1296 753 1296H718Q552 1296 441 1142Q399 1083 368 975T336 759ZM877
1656T908 1656T992 1688T1047 1721Q1087 1721 1087 1681Q1087 1605 1001 1526Q946 1475 879 1475H871Q821 1475 720 1520T582 1565T494 1532T428 1499Q395 1499 395 1538V1547Q395 1610 468 1677T621 1745L630 1744Q679 1744 778 1700ZM1410 697V674Q1410 531 1360
393T1211 153Q1031 -33 739 -33T272 162Q196 246 147 380T98 671V694Q98 839 147 973Q244 1237 486 1344Q605 1396 717 1396H787Q909 1396 1027 1349Q1262 1255 1361 984Q1410 850 1410 697Z" />
<glyph unicode="&#xd6;" horiz-adv-x="1529" d="M1132 665V718Q1132 838 1102 954Q1045 1175 908 1254Q825 1303 744 1303H727Q554 1303 450 1159Q400 1090 372 979T343 743V726Q343 446 459 276Q504 210 575 166T732 122H748Q1011 122 1101 436Q1132 543 1132
665ZM572 1520H552Q512 1520 478 1549T443 1625V1649Q443 1685 472 1719T535 1754L555 1757H579Q591 1754 607 1754T652 1726T681 1664Q683 1656 683 1652V1632Q683 1585 651 1553T572 1520ZM1057 1575Q1057 1540 1024 1507T954 1473H927Q880 1473 845 1508T809
1581Q807 1589 807 1594L806 1612L807 1617V1626Q809 1634 809 1639Q809 1685 851 1715T935 1746H953Q998 1746 1029 1709T1060 1624V1597Q1057 1585 1057 1575ZM1409 721V650Q1409 520 1356 384Q1252 118 1016 21Q884 -33 758 -33H734Q449 -33 271 162Q196 245
147 378T98 647V694Q98 821 140 953Q228 1231 485 1344Q604 1396 740 1396H787Q914 1396 1032 1346Q1264 1247 1360 983Q1409 849 1409 721Z" />
<glyph unicode="&#xd7;" horiz-adv-x="1093" d="M935 282Q935 275 905 245T856 215T692 354T536 494Q535 494 391 355T222 216Q211 216 182 245T153 293T293 448T434 608Q434 609 293 750T151 905V920Q151 926 180 955T232 985T392 847T549 708Q554 708 693 847T851
987T900 959T930 906Q930 891 790 751T650 594Q650 587 792 450T935 297V282Z" />
<glyph unicode="&#xd8;" horiz-adv-x="1545" d="M350 704V675Q350 539 376 446Q421 284 459 284H468Q479 284 500 308Q596 417 703 606Q983 1101 983 1139V1161Q983 1211 919 1251T760 1291H733Q565 1291 458 1129Q410 1058 380 946T350 704ZM552 178V158Q552
134 587 106T679 78H690Q861 78 980 279Q1032 367 1073 527T1115 855V928Q1115 1095 1080 1095Q1068 1095 941 840T683 392T552 178ZM832 1386L1044 1368Q1073 1368 1127 1395T1194 1422H1210Q1265 1422 1265 1362Q1257 1294 1257 1257T1321 1067T1386 751V697Q1386
552 1328 408Q1213 123 943 24Q827 -19 694 -19L485 -5Q439 -5 383 -35T312 -65Q247 -65 247 -1Q258 65 258 96T191 295T123 609V663Q123 808 179 954Q286 1235 558 1342Q670 1386 832 1386Z" />
<glyph unicode="&#xd9;" horiz-adv-x="1524" d="M470 1749V1770Q470 1783 497 1804T564 1825H586Q633 1825 692 1773Q890 1597 890 1529V1524Q890 1491 855 1491H839Q788 1491 575 1640Q470 1714 470 1749ZM1033 1331Q1033 1370 1199 1370H1277Q1393 1370 1416
1358T1440 1309Q1440 1287 1379 1253T1303 1178T1289 818T1279 389T1217 194Q1150 79 1036 26T795 -27H752Q435 -27 300 159Q243 237 225 331T206 766T195 1164T141 1246Q58 1296 58 1322Q58 1370 199 1370H429Q550 1370 550 1339Q550 1329 512 1285T459 1144T445
773T450 454Q466 306 510 238Q603 98 821 98Q901 98 969 133T1079 234Q1149 344 1149 581L1151 662L1152 783Q1152 1032 1134 1116T1074 1260T1033 1331Z" />
<glyph unicode="&#xda;" horiz-adv-x="1524" d="M659 1520V1529Q659 1551 793 1685T976 1820H992L998 1819Q1081 1819 1081 1758V1747Q1081 1691 964 1617Q763 1489 706 1489H695Q659 1489 659 1520ZM1147 796Q1147 1050 1127 1135T1086 1252L1053 1294Q1031 1323
1031 1330Q1031 1374 1179 1374H1217Q1433 1374 1433 1324Q1433 1284 1373 1246T1301 1160T1290 804T1276 386T1203 186T1035 40T775 -14Q467 -14 333 126Q253 209 229 311T204 605L203 645Q202 685 202 735V845Q202 1140 187 1185T116 1261T61 1313Q61 1359 112
1367Q149 1373 338 1373L417 1374H456Q556 1374 556 1338Q556 1325 524 1290T474 1198T457 967L456 928Q455 889 455 850L452 733V614Q452 344 534 231T802 118Q892 118 957 149Q1112 224 1136 445Q1146 542 1147 796Z" />
<glyph unicode="&#xdb;" horiz-adv-x="1524" d="M524 1491H510Q470 1491 470 1523Q470 1536 598 1676T771 1817H788Q840 1817 963 1672T1086 1523V1516Q1086 1491 1046 1491H1031Q987 1491 891 1572T782 1653T732 1623T626 1542T524 1491ZM1148 375T1148 691T1130
1108T1087 1249L1053 1291Q1030 1320 1030 1327Q1030 1371 1233 1371T1437 1321Q1437 1279 1388 1250Q1315 1207 1305 1158T1294 942V714L1292 632Q1291 590 1291 494Q1291 251 1158 111Q1024 -30 772 -30Q417 -30 290 158Q224 256 212 366T199 808T184 1183T112
1259T55 1311Q55 1357 105 1366Q139 1372 334 1372L413 1373H452Q554 1373 554 1337Q554 1324 518 1284T468 1175T454 918L452 839Q451 782 450 752T449 570Q449 331 531 216T804 101Q892 101 968 136T1096 273Z" />
<glyph unicode="&#xdc;" horiz-adv-x="1524" d="M691 1628L689 1609Q689 1580 658 1549T575 1517H563L536 1521Q511 1521 483 1549T454 1608L451 1632V1640Q451 1689 482 1720T545 1752L568 1755H584Q596 1752 614 1752T660 1724T688 1668Q690 1660 690 1656L692
1636V1632L691 1628ZM1093 1648V1628Q1093 1583 1060 1550T972 1517H968Q925 1517 889 1545T853 1621V1649Q853 1690 885 1722T962 1755H986Q1025 1755 1059 1727T1093 1648ZM1026 1331Q1026 1369 1232 1369H1271Q1385 1369 1409 1356T1434 1306Q1434 1285 1373
1252T1297 1174T1282 813T1273 390T1210 190T1046 33T789 -28H746Q428 -28 293 156Q227 247 213 356T199 785T189 1161T134 1244Q50 1294 50 1322Q50 1369 228 1369H343Q541 1369 541 1338Q541 1317 507 1285T455 1174T438 788T452 388Q496 96 817 96Q897 96 972
136T1096 276T1145 709T1127 1120T1068 1259T1026 1331Z" />
<glyph unicode="&#xdd;" horiz-adv-x="1341" d="M578 1503V1512Q578 1546 752 1742Q825 1824 884 1824H895L900 1823Q937 1823 966 1800T996 1755L995 1750Q995 1717 879 1636Q652 1477 620 1477H615Q578 1477 578 1503ZM389 37Q389 62 441 98T514 187T534 376T513
577T356 878T182 1165T80 1253T15 1322T52 1364T347 1375Q490 1375 490 1321Q490 1314 474 1289T457 1255Q457 1143 638 840Q690 752 707 752Q741 752 847 938T953 1193Q953 1235 947 1248T924 1288T907 1324Q907 1376 1115 1376H1215Q1303 1376 1303 1339T1234
1263T1124 1166Q1031 1033 853 694Q793 580 793 401T815 171T887 93T937 33T836 1H803L703 4L572 3Q389 3 389 37Z" />
<glyph unicode="&#xde;" horiz-adv-x="1309" d="M927 708V753Q927 887 853 967T663 1048H637L628 1047H611Q587 1044 579 1044Q524 1044 513 1000Q510 988 510 856V713L509 703Q509 693 509 683L508 673Q508 663 508 653L506 624Q506 614 506 604L505 594Q505
584 505 574L504 565V546L503 507V498Q503 446 530 426T615 405H640Q768 405 847 491T927 708ZM530 302T530 236T574 134Q659 64 659 51Q659 14 495 14L468 15H363Q140 15 140 47Q140 84 196 120T264 214Q284 308 284 714T264 1202Q252 1252 194 1280T136 1339Q136
1382 404 1382L457 1383H509Q596 1383 617 1371T639 1328Q639 1323 579 1267Q546 1236 546 1197T593 1143Q622 1133 718 1130Q1056 1119 1157 932Q1204 846 1204 746Q1204 541 1045 427Q937 350 741 333L713 331L655 329Q602 326 581 319Q530 302 530 236Z" />
<glyph unicode="&#xdf;" horiz-adv-x="1271" d="M291 -9H204Q96 -9 96 35Q96 47 138 94T193 201T206 429T200 662T174 782T154 865T169 938T219 1110Q312 1460 667 1460Q835 1460 932 1369T1030 1145Q1030 1074 941 973T851 820T877 736T998 628T1129 508Q1196
421 1196 299T1099 87T826 -3Q732 -3 675 32T617 113Q617 199 663 199Q691 199 738 170T833 140T927 179T975 283T943 400T818 516T683 633T641 743Q641 837 734 963T827 1162T779 1284T661 1332T537 1289T457 1155T431 671V494L429 407L428 321L435 91Q435 37
400 14T291 -9Z" />
<glyph unicode="&#xe0;" horiz-adv-x="1064" d="M569 467Q457 467 358 401Q293 358 293 272V239Q293 180 334 143T427 106H452Q519 106 582 150T645 242L647 254L650 303V378Q650 469 612 469H588Q574 467 569 467ZM236 1385V1395Q236 1408 259 1428T336 1449L342
1448Q403 1448 453 1391T567 1229T630 1114V1105Q630 1080 590 1080H574Q539 1080 388 1214T236 1385ZM492 962H543Q742 962 822 816Q859 748 859 478T871 170T937 113T992 74Q992 39 956 20Q888 -16 817 -16T712 16Q652 72 650 72Q635 72 535 22T331 -28T156 38T85
203V228Q85 341 181 415T494 531Q573 546 600 562Q645 589 645 665T607 796T487 851T332 763T203 675Q132 675 132 758T218 890Q343 962 492 962Z" />
<glyph unicode="&#xe1;" horiz-adv-x="1064" d="M292 231Q292 173 331 139T425 105H432Q509 105 575 151T642 256Q644 268 644 274L647 312Q647 324 647 336L648 355V422Q648 470 603 470L597 469L572 467Q565 466 559 466Q460 466 377 411T294 276L292 263V231ZM391
1106V1116Q391 1128 484 1267T578 1408Q619 1455 680 1455H698Q791 1455 791 1402V1391Q791 1360 651 1220T453 1079H431Q391 1079 391 1106ZM478 959H528Q730 959 814 817Q858 742 858 475T874 168T942 110T995 67Q995 35 952 16Q883 -14 812 -14T698 30T649 75T539
25T357 -26H333Q214 -26 145 43T75 224T169 414Q242 475 377 507Q595 559 598 561Q636 587 636 666T597 794T484 844T333 757T215 670Q134 670 134 754T229 891Q350 959 478 959Z" />
<glyph unicode="&#xe2;" horiz-adv-x="1064" d="M292 219Q292 175 333 143T416 111H440L446 112Q555 112 619 194Q649 233 649 343L650 367V403Q650 464 612 464H594L532 457Q437 457 365 401T292 282L290 270V238Q292 226 292 219ZM761 1082H747Q710 1082 610
1174T503 1266T399 1177T260 1088T218 1115Q218 1166 419 1404Q457 1449 504 1449H513Q556 1449 603 1398Q803 1180 803 1115Q803 1082 761 1082ZM478 966H529Q732 966 817 826Q862 752 862 482T878 170T948 112T1001 70Q1001 37 957 17Q888 -14 818 -14T702 31T645
76T596 55T497 5T358 -25H334Q215 -25 146 44T76 227T160 410T381 512Q598 563 604 567Q642 593 642 679T595 808T478 851T335 764T194 676Q133 676 133 760T228 898Q349 966 478 966Z" />
<glyph unicode="&#xe3;" horiz-adv-x="1065" d="M611 468H600L594 467H587Q461 467 359 399Q289 352 289 274V249Q289 186 331 149T429 112H435Q518 112 581 161T645 263Q647 275 647 281L648 287Q648 293 648 299L649 304Q649 310 649 316L650 340V388Q650 468
611 468ZM369 1363H401Q436 1363 529 1319T661 1275T750 1313T809 1352Q846 1352 846 1322V1314Q846 1250 779 1189T644 1127H636Q579 1127 490 1171T363 1216T268 1177T210 1138Q172 1138 172 1168V1176Q172 1237 256 1314Q309 1363 369 1363ZM491 973H517Q739
973 820 831Q860 760 860 481T876 168T943 115T995 78Q995 42 960 23Q893 -14 821 -14T714 19Q654 75 648 75T536 25T326 -25T152 43T82 208V233Q82 435 376 513Q395 518 489 538T601 569Q647 598 647 675T607 806T487 861T332 772T199 683Q128 683 128 767T215
900Q345 973 491 973Z" />
<glyph unicode="&#xe4;" horiz-adv-x="1065" d="M648 420Q648 469 612 469H606L600 468Q468 468 381 410T293 271V239Q295 225 295 220Q295 175 335 144T416 112H447Q524 112 583 164T643 271Q645 283 645 289L646 301Q646 307 646 313L647 325Q647 337 647 349L648
367V420ZM202 1279T202 1292T230 1339T295 1373L318 1376H326Q338 1373 358 1373T408 1343T438 1271V1247Q438 1204 406 1172T320 1139H312L285 1142Q259 1142 231 1170T202 1232L200 1240V1271Q202 1279 202 1292ZM822 1259V1239Q822 1201 793 1166T714 1130H691Q648
1130 619 1159T589 1217L586 1236V1259Q589 1271 589 1284T615 1329T675 1361Q681 1363 686 1363L701 1365H713L740 1361Q764 1361 793 1332T822 1259ZM132 783Q132 858 247 915T491 973Q731 973 812 850Q853 787 862 698Q864 679 864 447T876 176T944 116T999
78Q999 42 963 23Q893 -14 822 -14T717 18Q656 75 655 75Q642 75 540 25T348 -25H324Q224 -25 155 42T85 208V233Q85 350 190 429Q260 482 346 504T507 541T605 569Q650 596 650 674T611 806T491 860T335 772T203 683Q132 683 132 783Z" />
<glyph unicode="&#xe5;" horiz-adv-x="1064" d="M520 1180Q559 1180 589 1210T619 1275V1301Q619 1336 590 1365T536 1395L518 1398H503L478 1394Q455 1394 431 1364T407 1317L404 1296V1281L408 1257Q408 1237 434 1211T476 1183T495 1182L509 1180H520ZM302
285V246Q302 186 340 143T432 100H461Q471 102 477 102Q563 102 620 187Q645 225 645 345V364L647 394V418Q647 464 614 464H590L552 460Q457 460 380 412T302 285ZM503 1485H523Q607 1485 663 1429T719 1292V1286Q719 1204 658 1149T520 1093H500Q424 1093 365
1146T305 1272V1305Q305 1375 366 1430T503 1485ZM360 971T490 971T697 939T819 831T866 420Q866 214 881 175T950 117T1004 74Q1004 41 951 16T825 -9T707 35T649 80T585 53T521 18Q439 -21 362 -21H337Q219 -21 149 49Q79 118 79 232Q79 431 362 511Q377 515
472 533T591 562Q646 586 646 670T605 805T490 856T337 768T218 680Q136 680 136 765T231 902Q360 971 490 971Z" />
<glyph unicode="&#xe6;" horiz-adv-x="1573" d="M302 296V260Q302 200 339 168T433 136H466Q540 136 604 181T669 266V300L668 306L666 335Q666 344 666 353Q666 473 635 473H604Q574 468 552 468L501 461Q427 461 351 402Q302 364 302 296ZM845 591Q845 554 902
554H954L960 555L1130 566L1164 570Q1236 570 1236 622V658Q1234 670 1234 676Q1234 734 1187 794T1074 855H1038Q958 855 903 784T847 622L845 609V591ZM872 387Q872 326 899 270T959 186Q1028 126 1134 126Q1192 126 1229 138T1330 176T1394 201Q1439 201 1439
168Q1439 106 1325 48T1102 -10T925 14T793 83T713 129T636 86T509 18T340 -8T159 55T82 234Q82 450 376 521Q592 573 596 576Q639 603 639 686T595 815T475 861T333 777T221 692Q192 692 166 710T140 764Q140 861 249 916T478 972T688 931T798 890T856 911Q978
976 1076 976H1111Q1251 976 1355 881Q1403 837 1434 769T1466 647V616Q1466 544 1423 524T1176 492T955 476Q872 461 872 387Z" />
<glyph unicode="&#xe7;" horiz-adv-x="1011" d="M732 -242V-258Q732 -321 646 -378T469 -436L459 -435Q364 -435 364 -380V-367Q364 -329 407 -318Q533 -286 533 -208Q533 -168 500 -135T466 -92Q466 -72 474 -47Q316 -35 205 85Q151 142 119 231T86 404V428Q86
524 120 615Q186 792 351 865Q431 900 520 900H542Q709 900 811 846Q876 811 876 737T856 641T808 619T716 678T616 756T515 774Q425 774 369 688T312 446T382 201T590 111Q636 111 697 126T788 154T838 166Q873 166 873 130Q873 75 773 14T556 -48H554Q572 -63
640 -116Q732 -187 732 -242Z" />
<glyph unicode="&#xe8;" horiz-adv-x="1036" d="M312 634V609Q312 567 388 567H467L473 568L662 578Q677 581 682 581Q727 581 727 624V636L726 643V656Q726 748 676 812T539 877H526Q441 877 377 805T312 634ZM261 1385V1401Q261 1454 348 1454H376Q427 1454
477 1397T591 1234T655 1116Q655 1086 615 1086H598Q563 1086 412 1220T261 1385ZM315 401Q315 281 396 197T620 112Q677 112 778 151T890 191Q916 191 916 149Q916 132 879 94T756 19T563 -19H541Q351 -19 228 92Q166 147 126 240T85 434V479Q85 574 120 664Q191
848 357 922Q453 965 565 965Q732 965 832 868Q883 819 910 751T937 628V608Q937 537 867 513T625 488L497 483Q405 483 360 466T315 401Z" />
<glyph unicode="&#xe9;" horiz-adv-x="1035" d="M311 621V609Q311 573 359 573L371 571H421L428 572L633 583L672 587Q727 587 727 635V648L726 654V667Q726 752 678 813T562 875H529Q454 875 383 804T311 621ZM483 1079H461Q424 1079 424 1109L425 1114V1118Q425
1137 450 1173T488 1233L528 1296L555 1337Q588 1385 594 1391Q650 1454 705 1454H734Q762 1454 791 1435T820 1403V1388Q820 1366 677 1223T483 1079ZM317 403Q317 282 397 199T621 115Q683 115 777 153T890 192Q916 192 916 149Q916 98 796 38T558 -22H536Q337
-22 210 109T82 459V505Q82 591 119 681Q195 866 370 934Q456 967 538 967H561Q724 967 832 866Q881 820 910 748T940 624V604Q940 531 871 508T629 484L587 482L523 481Q408 481 363 466T317 403Z" />
<glyph unicode="&#xea;" horiz-adv-x="1036" d="M313 633V615Q313 583 351 583Q363 581 368 581L391 579H404L410 580L649 590L671 592Q734 592 734 653L733 659V672Q731 684 731 690Q731 768 671 822T543 876H530Q454 876 384 806T313 633ZM307 1084H284Q246
1084 246 1113V1120Q246 1127 332 1247T456 1409T542 1450H550Q593 1450 639 1396Q829 1171 829 1116Q829 1085 770 1085Q737 1085 645 1177T544 1269T493 1227T387 1134T307 1084ZM314 400Q314 278 397 195T603 112Q673 112 719 129T819 169T881 192Q921 192 921
147Q921 95 801 35T561 -25H539Q336 -25 211 104Q152 165 117 257T81 458V481Q81 484 81 487Q81 595 118 683Q191 860 350 929Q444 970 539 970H562Q727 970 835 869Q885 822 914 752T943 625V604Q943 531 872 507T608 482L565 480L521 479Q402 479 358 464T314
400Z" />
<glyph unicode="&#xeb;" horiz-adv-x="1036" d="M678 596Q732 596 732 639V671Q732 748 683 812T549 876H530Q445 876 380 801T314 628V622Q314 586 347 586Q359 584 364 584L375 582H430L437 583L661 594Q671 596 678 596ZM363 1139H336Q324 1142 308 1142T262
1172T232 1243V1267Q235 1279 235 1286Q235 1318 269 1346T339 1375H366Q378 1372 397 1372T441 1341T467 1286L470 1266V1247Q470 1210 440 1175T363 1139ZM854 1239Q854 1198 822 1166T747 1134H723Q680 1134 649 1165T618 1244V1259Q621 1271 621 1278Q621 1311
655 1339T726 1368H750Q792 1368 821 1339T850 1285L854 1266V1239ZM456 480Q312 480 312 401Q312 269 414 177Q490 109 626 109Q685 109 785 148T886 188Q927 188 927 144Q927 85 777 18Q681 -25 568 -25H546Q341 -25 212 104T83 457V480Q83 483 83 485Q83 576
118 669Q186 851 358 930Q451 973 547 973H569Q816 973 911 774Q946 700 946 619T878 514Q788 483 542 483L499 481Q478 480 456 480Z" />
<glyph unicode="&#xec;" horiz-adv-x="647" d="M40 1400V1409Q40 1454 112 1454H134Q146 1452 152 1452Q205 1452 252 1391Q430 1162 430 1101V1097Q430 1073 392 1073H382Q335 1073 188 1220T40 1400ZM159 12Q101 12 101 56Q101 78 147 104T204 163Q223 222 223
480T209 783T143 852T90 896Q90 929 132 940Q247 971 355 971H370Q423 971 431 926T440 566T456 191T523 100T574 46Q574 12 491 12H371L356 13H311L281 12H159Z" />
<glyph unicode="&#xed;" horiz-adv-x="647" d="M491 1462H497Q536 1462 562 1441T589 1401L588 1396V1391Q588 1355 434 1218T243 1081L238 1082Q199 1082 199 1107V1111Q199 1131 239 1191T316 1313T380 1405Q431 1462 491 1462ZM142 1Q92 1 92 40Q92 64 139
92T204 173T221 484T205 779T139 843T88 886V896Q88 914 115 927Q197 966 371 966H385Q433 966 441 911Q446 877 446 556T462 178T515 100Q579 65 579 41Q579 2 313 2H282L236 1H142Z" />
<glyph unicode="&#xee;" horiz-adv-x="648" d="M565 1096H550Q510 1096 372 1234Q322 1284 318 1284T212 1191T67 1097T23 1124Q23 1170 225 1409Q266 1457 315 1457H323Q365 1457 398 1421T520 1261T608 1127Q608 1096 565 1096ZM220 346V436L221 468V499Q221
722 207 767T139 840T85 882V892Q85 912 113 925Q192 963 355 963H384Q433 963 441 908Q445 880 445 555T461 171T516 90Q581 52 581 31Q581 -6 516 -6Q484 -8 470 -8H298L236 -9H142Q92 -9 92 31Q92 58 134 81T191 128Q218 175 218 295Q220 326 220 346Z" />
<glyph unicode="&#xef;" horiz-adv-x="649" d="M12 1279T12 1296T41 1342T101 1372L120 1375H144Q156 1372 172 1372T218 1342T248 1263V1255Q248 1211 219 1177T156 1142L137 1139H113L90 1143Q63 1143 38 1173T12 1228L9 1248V1267Q12 1279 12 1296ZM636 1267V1251Q636
1211 606 1175T525 1139H505Q461 1139 431 1169T400 1228L397 1248V1268Q400 1277 400 1295T430 1343T492 1373L516 1376H524Q536 1373 555 1373T605 1343T636 1267ZM160 -8Q101 -8 101 25T149 85T208 145Q229 211 229 470T216 772T148 841T93 887V897Q93 909 111
922Q171 964 361 964H375Q429 964 437 921T445 552T460 170T507 94Q579 49 579 38V27Q579 -7 329 -7H299L237 -8H160Z" />
<glyph unicode="&#xf0;" horiz-adv-x="1175" d="M337 487V429Q337 276 392 183Q461 65 560 65H580Q682 65 746 174T811 459V505Q809 529 809 539Q809 672 741 757T570 842H552Q467 842 404 754T341 543L339 521Q337 499 337 487ZM380 1124Q380 1147 410 1178T441
1243Q441 1259 379 1315T316 1399T366 1427T504 1397T631 1366T721 1380T796 1395Q851 1395 851 1335Q851 1313 832 1278T812 1225T882 1091Q1050 810 1050 544T938 139Q801 -30 579 -30Q358 -30 239 93Q175 159 144 248T113 422V451Q113 545 148 637T254 795T405
883T622 907Q715 907 715 951Q715 1028 631 1082Q600 1102 512 1102L415 1092Q380 1092 380 1124Z" />
<glyph unicode="&#xf1;" horiz-adv-x="1256" d="M483 1374H507Q552 1374 644 1331T777 1287T867 1325T935 1363Q965 1363 965 1333V1325Q965 1262 883 1186Q832 1139 769 1139H745Q693 1139 606 1182T476 1226T383 1188T323 1149Q285 1149 285 1180V1188Q285 1248
369 1326Q421 1374 483 1374ZM503 31Q503 -1 312 -1T107 2Q71 10 71 49Q71 66 125 94T190 167T200 475T179 785Q169 807 126 830T82 878T121 919Q194 951 328 951Q365 951 389 919L401 898L410 875Q422 851 435 851T499 881T576 925Q662 965 752 965Q935 965 1007
825Q1056 729 1056 353Q1056 172 1071 145T1136 93T1187 47Q1187 18 1150 8T941 -3H877Q775 -3 775 34Q775 47 798 80T830 153T839 442T800 763T652 835Q597 835 537 799T449 714T421 506L423 443L422 349Q422 205 435 160T475 80T503 31Z" />
<glyph unicode="&#xf2;" horiz-adv-x="1135" d="M307 554V494Q307 316 383 208T576 99H587Q693 99 754 188T816 421V480Q816 657 743 771T558 885H525Q424 885 366 791T307 554ZM632 1059H622L616 1060Q561 1060 419 1202T276 1378V1383L277 1389Q277 1406 307
1426T373 1447H391Q457 1447 511 1377Q676 1165 676 1097V1088Q676 1059 632 1059ZM535 966H601Q694 966 782 924Q1040 799 1040 483V450Q1040 350 1002 257Q926 75 758 9Q664 -28 575 -28H541Q448 -28 364 6Q200 73 129 252Q93 344 93 437V488Q93 580 128 672Q192
842 356 922Q447 966 535 966Z" />
<glyph unicode="&#xf3;" horiz-adv-x="1135" d="M310 473Q310 297 377 199T552 101H563Q676 101 744 197T813 477V512Q813 687 746 785T572 883H550Q446 883 380 786T313 556L311 533L310 497V473ZM500 1060H483Q441 1060 441 1092V1097Q441 1165 612 1385Q661
1448 733 1448H751Q779 1448 808 1429T837 1391V1381Q837 1327 687 1194T500 1060ZM535 968H601Q690 968 776 928Q944 851 1006 686Q1043 588 1043 483V449Q1042 356 1006 264Q934 82 773 13Q673 -30 575 -30H541Q350 -30 222 98Q162 158 126 253T90 454V488Q90
578 126 672Q194 852 369 930Q455 968 535 968Z" />
<glyph unicode="&#xf4;" horiz-adv-x="1135" d="M303 546V488Q303 324 375 219T558 113H580Q685 113 752 205T820 459V516Q820 657 738 784Q675 882 576 882H543Q441 882 372 784T303 546ZM554 1440H571Q617 1440 658 1387Q849 1139 849 1101Q849 1068 799 1068H791Q755
1068 661 1155T562 1242T455 1157T310 1071T265 1102Q265 1168 464 1385Q514 1440 554 1440ZM1044 502V451Q1044 358 1008 266Q940 92 774 14Q681 -29 575 -29H524Q433 -29 349 10T212 108T123 259T88 457V490Q88 590 128 685Q202 862 369 934Q458 972 551 972H585Q684
972 773 934Q941 861 1007 689Q1044 591 1044 502Z" />
<glyph unicode="&#xf5;" horiz-adv-x="1135" d="M565 881H542Q438 881 370 788T301 516V505Q301 334 373 223Q406 172 456 143T558 113H591Q689 113 755 209T821 455V500Q821 667 748 774T565 881ZM426 1360H450Q491 1360 587 1317T720 1274T802 1308T860 1343Q896
1343 896 1310V1301Q896 1244 833 1175T705 1106H673Q633 1106 536 1149T403 1193T317 1158T257 1123Q220 1123 220 1155V1164Q220 1229 291 1294T426 1360ZM551 975H585Q680 974 768 938Q940 867 1007 692Q1044 594 1044 488V454Q1044 366 1008 272Q935 81 759
11Q665 -26 574 -26H524Q430 -26 342 16Q182 93 120 270Q88 363 88 459V493Q88 584 124 678Q196 869 382 942Q466 975 551 975Z" />
<glyph unicode="&#xf6;" horiz-adv-x="1135" d="M313 549V477Q313 316 381 210T557 104H568L579 105Q675 105 737 196T800 432V514Q800 678 732 783T556 888H546L535 887Q439 887 376 795T313 549ZM356 1142T343 1142T298 1168T267 1228L264 1247V1267Q267 1279
267 1296T298 1344T371 1375H398Q410 1372 426 1372T473 1342T503 1263V1255Q503 1211 474 1177T411 1142L392 1139H368Q356 1142 343 1142ZM768 1106H739Q729 1108 726 1108Q687 1108 657 1145T626 1223V1244Q626 1286 658 1325T746 1364H768Q813 1364 843 1328T873
1238V1234L869 1200Q869 1176 840 1141T768 1106ZM1047 504V454Q1047 362 1012 270Q942 84 763 11Q671 -27 578 -27H544Q541 -27 539 -27Q452 -27 368 6Q190 76 123 270Q91 363 91 459V493Q91 593 129 684T227 840T377 939T555 974H588Q784 974 913 845Q975 783
1011 688T1047 504Z" />
<glyph unicode="&#xf7;" horiz-adv-x="1128" d="M578 815H549Q513 815 477 845T440 924V948Q440 989 473 1022T542 1056L567 1059H571L575 1058Q619 1058 655 1028T692 949V925Q692 884 658 850T578 815ZM163 524Q111 524 111 559V590Q111 647 144 652T497 658H975Q1027
658 1027 623V592Q1027 537 1003 531T556 525L515 524H163ZM581 134H551Q513 134 478 163T443 224Q441 232 441 235L439 255L440 259V266Q442 274 442 278Q442 309 478 339T542 369L566 372H575Q587 369 611 369T665 333T695 262V246Q695 197 657 166T581 134Z"
/>
<glyph unicode="&#xf8;" horiz-adv-x="1161" d="M320 410Q320 336 356 258Q365 239 371 239H376Q402 239 499 390Q711 720 711 796Q711 823 677 851T581 880H556Q461 880 391 788T320 564L318 546L317 518V454Q320 427 320 410ZM805 666Q805 724 796 724T765 670T678
493T598 348Q452 129 452 124V112Q452 72 516 72H529Q576 72 623 107T702 207Q801 405 801 593Q803 607 803 616L805 645V666ZM910 1039H924Q965 1039 965 993Q965 987 952 938T938 865T962 789T1006 680T1027 524V504Q1027 395 989 291T871 114T702 13T476 -16L409
-14Q368 -14 311 -50T235 -87Q186 -87 186 -36Q186 -32 198 13T211 76T165 208T118 412V472Q118 580 162 680Q292 974 651 974L751 970Q780 970 837 1004T910 1039Z" />
<glyph unicode="&#xf9;" horiz-adv-x="1222" d="M303 1385V1396Q303 1413 329 1433T386 1454H396Q454 1454 501 1401Q704 1173 704 1108V1104Q704 1082 669 1082H658Q601 1082 369 1288Q303 1347 303 1385ZM1013 377Q1013 233 1026 194T1067 135Q1124 95 1124
85Q1124 50 1064 31T904 12Q852 12 824 54Q820 59 807 88T781 118Q770 118 724 86Q602 0 482 0H453Q379 0 316 35T222 131Q173 225 173 501T155 807T88 854T39 890V913Q39 956 246 956H300Q346 956 365 900T385 660L386 603L387 574L388 487Q388 291 414 232Q457
132 564 132Q620 132 675 160T762 236T794 496T781 767T735 858T702 903T721 926Q774 956 933 956Q985 956 1000 938T1016 808L1014 666V579L1013 550V377Z" />
<glyph unicode="&#xfa;" horiz-adv-x="1218" d="M859 1404V1393Q859 1358 706 1222T507 1086H501L496 1087Q461 1087 461 1113L462 1118V1122Q462 1131 555 1264T657 1407Q703 1459 761 1459H778Q806 1459 832 1439T859 1404ZM793 506T793 607T778 768T731 861T700
906T721 931Q775 959 937 959Q988 959 1004 939T1021 862L1020 833Q1019 804 1019 774L1017 716L1016 657V538Q1016 256 1029 199T1088 109T1133 66Q1133 41 1090 18T964 -5T858 8Q835 21 814 61T782 102T722 69Q596 -17 485 -17Q283 -17 215 116Q169 206 169 554Q169
756 159 787T111 836Q37 871 37 888Q37 927 76 936Q158 955 279 955Q353 955 370 900Q394 823 394 550T415 225T472 147T566 120T680 149T765 228T795 448L794 477Q793 506 793 607Z" />
<glyph unicode="&#xfb;" horiz-adv-x="1218" d="M832 1094H818Q781 1094 687 1188T587 1282T480 1189T335 1095T291 1124Q291 1186 500 1414Q538 1455 577 1455H593Q633 1455 670 1415Q877 1189 877 1124Q877 1094 832 1094ZM1138 56Q1138 -15 908 -15Q859 -15
823 39T784 94Q771 94 725 62Q597 -27 485 -27Q282 -27 213 107Q167 195 167 549Q167 754 156 785T109 834Q34 869 34 886Q34 926 73 935Q155 954 277 954Q350 954 369 898Q392 829 392 548T413 217T468 139T568 110Q677 110 747 192Q797 250 797 411L796 440Q795
469 795 579T774 782Q764 824 732 856Q700 890 699 904Q699 957 930 957Q934 957 939 957Q991 957 1007 936T1023 829L1021 770Q1019 712 1019 674V591L1018 561V502Q1018 251 1031 192T1091 99T1138 56Z" />
<glyph unicode="&#xfc;" horiz-adv-x="1221" d="M357 1141T341 1141T296 1170T266 1239V1270Q268 1278 268 1282Q268 1317 303 1346T384 1375H388Q440 1375 470 1345T500 1289Q502 1281 502 1277L504 1261V1249Q504 1203 473 1172T412 1141L393 1138H369Q357 1141
341 1141ZM897 1246Q897 1246 895 1216Q895 1200 864 1169T791 1138H764Q717 1138 688 1173T659 1255V1259Q659 1303 689 1339T770 1375H786Q829 1375 862 1348T895 1285L898 1262V1250L897 1246ZM1129 66Q1129 -7 905 -7Q853 -7 819 45T781 98Q770 98 722 65Q598
-21 476 -21H446Q375 -21 310 15T214 114Q167 208 167 554Q167 750 155 785T107 837Q31 871 31 885Q31 925 69 934Q141 951 272 951Q346 951 363 894Q385 822 385 546T408 216T465 135T560 107T677 137T764 215T796 481T782 757T734 848T700 897Q700 952 936 952Q988
952 1004 932T1020 830L1018 772Q1016 714 1016 678V598L1015 509Q1015 245 1026 194T1071 117Q1129 74 1129 66Z" />
<glyph unicode="&#xfd;" horiz-adv-x="1116" d="M477 1108V1123Q477 1136 519 1190T598 1311T671 1419T757 1461H774Q784 1459 799 1459T842 1438T869 1404V1399L868 1394Q868 1378 720 1230T525 1081H520Q477 1081 477 1108ZM616 276Q626 276 655 340Q794 646
794 805Q794 840 773 880T751 926Q751 959 889 959H922Q1061 959 1061 908Q1061 885 1011 831T932 712T767 296T557 -188T414 -375T279 -429T170 -403T128 -330Q128 -265 205 -265L227 -266L270 -270Q345 -270 408 -192T472 -24Q472 76 385 250T238 566T147 754Q54
892 54 900Q54 930 94 943T272 957T409 914L399 830Q399 708 561 347Q593 276 616 276Z" />
<glyph unicode="&#xfe;" horiz-adv-x="1210" d="M856 457V506Q856 672 794 773T639 874H630Q567 874 513 839T438 762T417 436Q417 425 417 414L416 370V261Q416 77 611 77H620Q730 77 793 184T856 457ZM427 -56T427 -151T444 -280T498 -342T534 -399Q534 -442
381 -442H352L322 -441H263Q148 -441 122 -432T96 -390Q96 -383 130 -349T181 -242T197 26L201 148Q201 179 201 210L202 242V615Q202 1113 192 1184T150 1286Q142 1294 108 1319T74 1361T89 1387Q155 1430 308 1430Q378 1430 397 1377T417 1163T427 956T474 910Q476
910 563 939T722 968Q796 968 866 940Q1017 879 1073 706Q1104 613 1104 520V488Q1104 384 1064 286Q945 -2 634 -2L521 2Q468 2 448 -27Z" />
<glyph unicode="&#xff;" horiz-adv-x="1139" d="M375 1366H395Q439 1366 469 1336T500 1273L502 1265V1233Q500 1225 500 1222Q500 1192 469 1161T384 1130H376L349 1133Q324 1133 294 1163T264 1246L265 1250Q265 1254 265 1258L267 1273Q267 1303 298 1334T375
1366ZM757 1133T741 1133T697 1161T669 1215L665 1242V1258Q668 1270 668 1284T695 1330T756 1363L775 1366H799Q811 1363 827 1363T873 1333T903 1262V1238Q903 1195 872 1164T812 1133L793 1130H769Q757 1133 741 1133ZM646 283Q654 283 684 347Q820 641 820
801Q820 828 798 873T775 920Q775 952 912 952H943Q1072 952 1072 901Q1072 880 1024 829T954 725T798 317T590 -172T445 -357T312 -409T211 -383T172 -312Q172 -253 254 -253L276 -254L319 -258Q392 -258 451 -177T511 -4Q511 51 321 468Q315 482 276 577T220
705T155 800T107 892T149 936T318 951T446 908L433 825Q433 720 593 349Q621 283 646 283Z" />
<glyph unicode="&#x2013;" horiz-adv-x="1113" d="M1016 583V542Q1016 494 982 486Q964 482 536 482H285L264 481H222L181 480Q120 480 109 489T97 535L98 546Q98 606 132 612Q155 616 576 616L786 617H963Q1016 617 1016 583Z" />
<glyph unicode="&#x2014;" horiz-adv-x="1763" d="M1604 617Q1680 617 1680 569V552Q1680 491 1619 485Q1587 482 864 482H434L382 481H160Q84 481 84 529V546Q84 607 144 613Q176 616 895 616L1173 617H1225L1242 616L1294 617H1604Z" />
<glyph unicode="&#x2018;" horiz-adv-x="523" d="M110 1108V1139Q110 1254 175 1341Q271 1469 344 1469H350Q380 1469 380 1426Q380 1420 350 1383T313 1337Q278 1290 278 1233Q278 1206 337 1157T397 1060V1038Q397 1003 359 969T280 934H249Q189 934 150 982T110 1108Z" />
<glyph unicode="&#x2019;" horiz-adv-x="518" d="M420 1303V1271Q420 1154 335 1040T182 926H176Q140 926 140 965L205 1052Q248 1109 248 1161Q248 1191 193 1236T138 1337V1344L139 1351Q139 1395 176 1429T265 1463H280L288 1462Q344 1462 382 1420T420 1303Z" />
<glyph unicode="&#x201a;" horiz-adv-x="520" d="M407 27Q407 -60 322 -173T168 -287H162Q129 -287 129 -246Q129 -245 183 -173T237 -48Q237 -24 181 26T125 123V144Q125 191 167 223T264 255L272 254Q336 254 373 209T410 82V66Q407 42 407 27Z" />
<glyph unicode="&#x201c;" horiz-adv-x="898" d="M269 922H238Q178 922 139 970T99 1112L100 1120V1128Q100 1245 180 1351T326 1458H338Q369 1458 369 1415L307 1332Q267 1279 267 1228Q267 1199 326 1146T386 1048V1034Q386 986 347 954T269 922ZM492 1105V1120Q492
1243 572 1350T724 1458Q761 1458 761 1420Q761 1413 711 1346T660 1222Q660 1200 719 1147T779 1048V1034Q779 987 740 955T661 923H630Q571 923 532 971T492 1105Z" />
<glyph unicode="&#x201d;" horiz-adv-x="896" d="M403 1283V1244Q403 1144 323 1028T166 911Q130 911 130 953Q130 955 182 1024T234 1149Q234 1158 180 1218T125 1318V1332Q125 1380 162 1413T246 1447H269Q329 1447 366 1402T403 1283ZM796 1283V1251Q796 1144
730 1049Q634 911 564 911H551Q520 911 520 952Q520 964 546 994Q624 1080 624 1149Q624 1164 569 1219T514 1325L515 1332Q515 1384 554 1416T645 1448H652Q718 1448 757 1405T796 1283Z" />
<glyph unicode="&#x201e;" horiz-adv-x="904" d="M399 91V52Q399 -51 330 -151Q234 -290 165 -290H152Q123 -290 123 -247Q123 -244 175 -175T227 -48Q227 -26 173 23T119 117V139Q119 186 159 218T245 251H269Q330 251 364 205T399 91ZM797 66Q797 66 795 28Q795
-54 713 -172T561 -291H548Q517 -291 517 -253Q517 -236 544 -206Q623 -120 623 -47Q623 -26 569 23T514 118V140Q514 182 552 217Q591 252 642 252H666Q725 252 761 207T798 82V74L797 66Z" />
<glyph unicode="&#x2022;" horiz-adv-x="827" d="M667 662V646Q667 536 593 468T415 400H390Q295 400 225 464T155 619L153 635V652L154 660Q154 745 227 818T405 891H422Q438 889 447 889Q537 889 602 818T667 662Z" />
<glyph unicode="&#x2039;" horiz-adv-x="710" d="M575 901V892Q575 853 442 704T309 527Q309 517 439 361T570 150Q570 116 534 116H525Q510 116 309 305T108 533Q108 559 311 750T529 941H537Q575 941 575 901Z" />
<glyph unicode="&#x203a;" horiz-adv-x="710" d="M140 163Q140 187 273 355T406 532T273 700T140 897Q140 942 185 942Q212 942 407 747T603 537V527Q603 497 400 306T181 115Q140 115 140 154V163Z" />
</font>
</defs>
</svg>
