<?xml version="1.0" standalone="no"?>
<!DOCTYPE svg PUBLIC "-//W3C//DTD SVG 1.1//EN" "http://www.w3.org/Graphics/SVG/1.1/DTD/svg11.dtd">
<svg xmlns="http://www.w3.org/2000/svg">
<defs >
<font id="AmaticSC" horiz-adv-x="335" ><font-face
    font-family="Amatic SC"
    units-per-em="1000"
    panose-1="0 0 5 0 0 0 0 0 0 0"
    ascent="1016"
    descent="-245"
    alphabetic="0" />
<glyph unicode=" " glyph-name="space" horiz-adv-x="171" />
<glyph unicode="!" glyph-name="exclam" horiz-adv-x="254" d="M124 159L123 161V401L125 486V572Q125 617 122 651L120 678L118 729Q118 739 128 747T149 756Q162 756 162 743Q162 655 152 504Q141 337 141 265L142 245V221Q142 179 134 162L137 157H124V159ZM128
-8T124 -8L111 -2Q106 1 95 19Q95 29 105 39T125 50Q139 50 147 40T155 13Q155 -12 130 -13Q128 -8 124 -8Z" />
<glyph unicode="&quot;" glyph-name="quotedbl" horiz-adv-x="332" d="M99 616Q101 625 101 676V684Q101 769 112 769Q122 769 128 758T135 731Q135 703 124 659T103 614L99 616ZM215 613T215 614Q202 635 202 688V710Q202 735 205 747Q210 764 214 767Q218 769
222 769Q228 769 231 758Q235 747 235 731Q235 703 229 658T218 613Q215 613 215 614Z" />
<glyph unicode="#" glyph-name="numbersign" horiz-adv-x="400" d="M92 -28T87 -25T81 -18Q81 22 93 130T117 293L96 291Q78 289 74 289Q44 289 44 310Q44 320 78 320H99Q116 320 119 321Q122 327 129 393T137 474Q128 474 121 473L104 472Q66 472 64 490L72 499H93Q130
499 139 502L148 567Q162 657 162 711V721L161 731Q161 753 176 753L183 739Q183 700 174 623Q166 555 166 507Q178 503 208 503H221Q257 503 274 510Q304 650 312 745Q318 753 326 753Q335 753 338 743Q338 705 320 630Q302 555 302 515L304 510H341L354 496Q348
480 341 480Q330 480 320 481L299 482Q284 422 284 331L290 329L298 330H308Q336 330 336 311Q336 304 320 298H281Q280 278 267 159Q253 41 253 -15L242 -28Q224 -28 224 -18Q224 -3 231 44Q237 86 237 107Q237 131 247 201Q256 263 256 294Q229 297 175 297Q154
297 140 293Q128 183 130 200L127 170Q120 84 112 27Q108 -2 105 -15T97 -28Q92 -28 87 -25ZM214 323T254 327L265 385Q270 418 271 442Q272 452 272 470Q272 480 195 480Q172 480 162 474Q157 463 151 408T145 329V327L146 325L162 323Q214 323 254 327Z" />
<glyph unicode="$" glyph-name="dollar" horiz-adv-x="254" d="M135 -9T133 -2T130 11L134 14V80L131 83Q92 83 81 81Q46 105 46 131Q46 141 55 141H57Q67 134 70 125Q73 112 80 106T104 100Q118 100 132 104Q132 139 123 246T106 430Q104 440 95 458L86 477Q76
497 66 521T49 571Q39 605 39 635Q39 663 49 699Q54 718 64 730T87 743L85 764Q83 773 83 786Q83 812 97 812L105 803Q104 799 104 781Q104 744 120 744Q140 744 158 722Q183 698 183 692Q183 686 179 681T171 679Q163 687 157 698Q148 712 139 718T112 726L109
718Q109 696 111 679Q112 661 112 639Q112 606 120 523T135 425Q142 408 162 368Q215 258 220 197Q220 174 216 160T202 133Q192 121 181 112T152 90L154 62Q156 49 156 33Q156 -9 139 -9Q135 -9 133 -2ZM103 521T94 604Q86 685 85 719Q76 718 69 685T62 629Q62
568 100 483Q100 481 103 479Q103 521 94 604ZM171 124T184 145T198 189Q198 216 175 284T133 379Q133 335 142 248Q150 155 150 117L151 115Q171 124 184 145Z" />
<glyph unicode="%" glyph-name="percent" horiz-adv-x="540" d="M39 353T39 576V580Q39 617 55 680Q62 714 77 736T110 758H112Q161 758 179 721Q210 669 210 566L208 563Q208 550 209 540L210 517Q210 500 209 482T203 440Q197 413 189 396T164 366Q147 353 123
353Q39 353 39 576ZM177 4T177 15Q177 35 181 60T198 134Q201 144 212 189Q276 473 337 707L339 713Q340 719 342 725T345 735L350 745Q352 748 354 748Q360 748 364 745T369 735Q369 730 365 711L355 668Q351 646 349 643L236 146L216 59L213 45Q211 30 205 14Q199
-1 187 -3Q177 4 177 15ZM142 379T157 395T178 439Q187 485 187 523Q187 550 183 585Q179 639 179 648L177 657Q177 687 159 709T113 731Q103 731 95 720T83 690Q74 655 71 622Q70 614 70 609T68 601Q68 594 66 588L64 575Q64 561 65 548L66 520Q66 488 75 442Q81
414 93 397T121 379Q142 379 157 395ZM382 13T368 32T345 83Q330 140 330 171V175Q330 398 414 398Q436 398 453 386T480 354Q488 337 493 313T500 269L501 234L500 211L499 188L501 185Q501 128 484 77Q474 48 453 31T401 13Q382 13 368 32ZM431 46T447 64Q461
81 468 111Q473 129 475 168V197V229Q475 264 470 293Q465 318 459 333T441 358Q429 370 411 370Q395 370 384 353T366 309Q357 263 357 232L356 205Q355 193 355 179Q355 172 357 166L359 153Q359 149 363 130Q367 104 370 90T382 61Q391 46 403 46Q431 46 447
64Z" />
<glyph unicode="&amp;" glyph-name="ampersand" horiz-adv-x="449" d="M420 7Q420 -9 375 -9Q360 -9 343 -3T313 11Q298 20 285 31Q250 7 227 -1T171 -10Q137 -10 107 14T61 74Q44 110 44 143Q44 188 50 218L55 249Q56 259 64 279Q67 288 69 294T73 306L86 336L100
363Q102 368 106 376T116 396L133 429Q133 453 130 499Q126 540 126 569V652Q126 683 140 703Q148 715 159 715Q183 715 208 699T234 664Q234 647 233 634L231 604L232 592L210 527Q199 496 184 466Q183 464 173 450Q157 428 157 413Q157 381 177 302T225 151Q256
76 277 70Q315 145 315 264Q315 272 313 276Q310 281 307 279Q296 279 292 286V288L291 294L293 299Q312 299 352 303T401 311Q408 310 413 306T418 296Q418 289 403 285T369 280H357Q352 281 345 281H338Q338 200 329 151T295 53Q329 13 373 13Q383 13 391 14Q407
16 410 16L420 7ZM169 690T159 676T149 654L150 530L152 525Q150 517 150 508Q150 504 152 486Q153 477 153 464Q170 479 191 540T212 630Q212 690 175 690Q169 690 159 676ZM202 9T233 21T265 49Q261 57 245 72Q215 102 190 166T150 298L145 338Q142 367 137 384Q103
340 85 281T66 161Q66 105 92 59Q105 36 127 23T179 9Q202 9 233 21Z" />
<glyph unicode="&apos;" glyph-name="quotesingle" horiz-adv-x="234" d="M103 616Q105 634 105 676V684Q105 769 116 769Q126 769 132 758T139 731Q139 703 128 659T107 614L103 616Z" />
<glyph unicode="(" glyph-name="parenleft" horiz-adv-x="203" d="M166 -166T160 -155Q153 -144 149 -135L146 -126Q101 -26 75 129T49 429Q49 468 62 552T98 711Q122 792 146 794L156 786Q155 763 134 723L121 695Q76 569 76 429Q76 114 152 -68Q155 -76 172
-106Q189 -136 193 -154Q186 -166 178 -166Q166 -166 160 -155Z" />
<glyph unicode=")" glyph-name="parenright" horiz-adv-x="212" d="M19 -136T15 -133T10 -124Q10 -119 17 -105L35 -71Q41 -59 45 -51T51 -38Q89 64 113 183T137 399Q137 569 92 695L79 723Q57 762 57 786L66 794Q87 792 106 740Q136 659 157 485Q164 413 164
399Q164 289 133 156Q114 73 91 -4Q76 -58 57 -99Q38 -136 24 -136Q19 -136 15 -133Z" />
<glyph unicode="*" glyph-name="asterisk" horiz-adv-x="430" d="M97 364Q97 376 134 449Q172 524 176 546Q168 548 165 548H52Q47 548 44 547H36Q25 547 25 563Q25 568 28 571T36 575H104Q133 574 171 574L173 576Q161 599 131 664T100 734Q100 739 105 742T116
745Q122 745 137 710Q140 703 143 695T150 677Q162 651 167 637Q183 598 193 592Q198 600 211 643Q232 701 240 720Q255 754 265 754Q270 754 275 749T281 739Q281 735 268 712Q256 687 241 642Q226 596 217 575L218 574Q245 570 278 570Q292 570 321 573L364 575Q371
575 377 569T383 556Q383 542 360 542L303 544Q266 547 246 547H234Q219 547 215 544Q215 531 254 456Q292 378 292 368Q292 362 288 358T278 354Q268 354 263 362T254 388Q250 401 250 406Q223 469 196 520Q192 515 184 494L145 402L139 386Q130 361 124 351L111
349L97 364ZM214 546V547Q213 547 213 547T213 546H214Z" />
<glyph unicode="+" glyph-name="plus" horiz-adv-x="400" d="M192 174T185 178T177 188V219Q177 233 178 245L179 271Q179 281 179 286T175 297Q172 302 166 303T145 304L123 302Q108 299 101 299Q72 299 72 320Q72 328 74 331T83 334L109 333L136 331Q177 331
177 339Q177 356 174 389L172 439Q172 451 176 456T192 461Q210 461 210 444L206 434L208 395L210 355Q210 341 216 336T238 331L268 333L298 334Q329 334 329 316Q329 300 312 300Q295 300 282 302Q269 303 251 303H246Q223 303 217 298T210 270Q210 249 214 228Q219
200 219 190Q219 183 213 179T198 174Q192 174 185 178Z" />
<glyph unicode="," glyph-name="comma" horiz-adv-x="199" d="M74 -69T74 -64Q74 -59 82 -48Q91 -36 91 -36Q98 -25 103 -8Q106 1 106 6T105 13Q93 14 86 23T78 42Q78 56 89 64T115 72Q131 72 137 61T144 36Q144 12 129 -19T91 -70L85 -71Q74 -69 74 -64Z" />
<glyph unicode="-" glyph-name="hyphen" horiz-adv-x="266" d="M47 332T41 337T34 349Q34 359 97 368T205 378Q213 378 220 373T227 361Q227 351 164 342T55 332Q47 332 41 337Z" />
<glyph unicode="." glyph-name="period" horiz-adv-x="147" d="M62 -4T56 3T49 20Q49 30 57 38T75 47Q83 47 91 39T99 21Q99 -4 71 -4Q62 -4 56 3Z" />
<glyph unicode="/" glyph-name="slash" horiz-adv-x="332" d="M76 3T76 15Q76 36 81 62T97 133L111 189Q175 473 236 707L238 713Q239 719 241 725T244 735L249 745Q251 748 253 748Q268 748 268 735Q268 734 263 711L253 668L248 643L210 475L135 146L115 59Q114
56 112 45Q110 37 104 14Q98 -1 85 -3Q76 3 76 15Z" />
<glyph unicode="0" glyph-name="zero" horiz-adv-x="321" d="M163 -7T151 -2T135 6Q86 43 71 192Q64 262 62 331T59 506V586Q60 622 60 666Q60 691 63 708Q64 719 67 724T81 740Q95 753 131 753Q221 753 240 593Q263 423 263 240Q263 179 260 142Q256 96 243 55Q236
34 226 22T201 1Q185 -7 167 -7Q163 -7 151 -2ZM203 16T218 63Q232 112 234 157Q237 213 237 231Q237 263 231 371Q225 478 225 508V532Q222 592 211 627Q203 658 193 680T166 717Q148 731 124 731Q100 731 91 719T81 682Q81 673 82 666V649L84 556L86 462V364Q86
306 92 240Q98 158 118 90Q127 56 142 36T176 16Q203 16 218 63Z" />
<glyph unicode="1" glyph-name="one" horiz-adv-x="275" d="M52 3T48 7T44 22Q44 25 46 28T52 32H81L109 31Q125 31 129 34T134 51Q134 284 112 627V659L113 691Q113 707 110 713T98 722T67 724Q61 724 56 723L44 722Q27 722 27 733Q27 738 32 741T47 745Q61 747
126 747Q133 747 137 742T142 731V700Q142 669 145 606L147 511Q147 490 154 370Q160 240 160 176V163L163 108L165 50L164 42L163 35L167 32L190 34Q200 35 212 35Q243 35 243 21Q243 7 221 7L141 5Q101 3 60 3Q52 3 48 7Z" />
<glyph unicode="2" glyph-name="two" horiz-adv-x="338" d="M73 -8T66 -3T59 12L112 134Q171 262 199 375T227 610Q227 754 165 754Q152 748 144 734T133 703Q129 667 116 667Q106 667 103 677V687Q103 728 126 758Q138 774 155 774Q196 774 222 743T250 667L249
665Q249 645 250 628Q251 612 251 592Q251 509 229 392T175 205L146 140L124 90Q107 51 101 35Q98 28 98 24Q98 19 104 19Q158 29 224 30Q238 30 238 14Q238 1 229 1L158 -3Q103 -8 83 -8Q73 -8 66 -3Z" />
<glyph unicode="3" glyph-name="three" horiz-adv-x="332" d="M143 -1T123 9T103 36L110 41Q117 41 125 37T141 27Q144 24 153 18Q229 18 229 145Q229 213 225 257Q221 289 214 313T194 365Q182 390 161 412H157L151 411Q144 411 132 415V419L127 424Q130 430
138 439Q141 443 155 460T182 503Q191 529 191 552Q191 595 186 631Q182 660 176 679T157 713Q144 728 127 728Q112 728 101 720T85 700Q75 671 62 671Q56 671 51 675T44 685Q61 719 81 735T130 752Q143 752 155 746T175 728L178 727Q218 669 218 538Q218 514 200
482Q197 480 184 459Q176 446 167 434Q207 419 222 374Q232 343 242 287Q244 266 249 248Q254 221 255 214T256 179Q256 143 253 116Q250 80 238 50Q225 19 198 6Q184 -1 165 -1Q143 -1 123 9Z" />
<glyph unicode="4" glyph-name="four" horiz-adv-x="299" d="M175 -6V30L174 32Q178 47 178 68Q178 85 175 119Q171 150 171 170L172 192Q173 202 173 215Q173 253 163 259Q152 259 134 256Q114 253 104 253Q95 253 91 254Q85 258 83 260L77 264V267Q77 272 83
299L73 319Q73 326 78 343Q83 361 83 368Q83 407 87 466Q92 520 92 564V723Q92 730 90 736L88 748Q88 761 100 761Q107 761 112 757T118 747Q118 725 116 707L114 667Q114 650 117 633L115 630Q117 618 117 602Q117 560 111 476Q105 392 105 350Q105 344 109 335Q112
326 112 321Q112 316 109 308Q105 300 105 294Q105 275 115 275Q124 275 141 278T166 284Q166 308 158 500Q158 515 154 539Q150 575 150 580Q150 586 156 589T169 592L178 581Q178 558 181 511Q184 463 184 440Q184 402 187 345T194 284L212 286Q221 288 231 288Q250
288 250 277Q250 269 242 266T223 265Q211 266 203 261T194 243Q194 203 197 142T203 74Q203 73 203 69T202 57Q202 41 207 33L203 21L207 14V0L190 -12L175 -6Z" />
<glyph unicode="5" glyph-name="five" horiz-adv-x="316" d="M125 -10T125 6Q125 17 144 17Q149 17 157 13Q164 9 169 9Q184 9 197 27T218 72Q232 126 232 160Q232 231 222 330Q215 385 199 426Q183 465 160 465H137L132 462H131L129 463Q128 463 118 458Q108
454 107 454Q98 454 93 458T85 470Q84 473 84 477T83 486V501Q87 526 87 552Q87 585 76 660Q65 726 63 764L74 774L150 775H152Q181 775 181 761L169 752H148L146 750L105 755L99 753L95 754Q95 735 98 700Q101 663 102 659Q105 607 115 491L113 490L131 488Q188
481 200 472Q218 459 232 406T252 298Q257 256 257 214Q257 174 255 145Q253 109 243 72Q237 52 229 38T209 12Q198 0 182 -10H174Q125 -10 125 6ZM95 653Q94 653 94 653T94 652L95 653Z" />
<glyph unicode="6" glyph-name="six" horiz-adv-x="313" d="M153 -14T139 -4T117 24Q103 53 99 105L97 130Q96 155 93 180Q78 290 78 394V398Q78 442 80 487Q81 534 91 610Q97 667 119 719Q139 766 174 766Q178 766 182 763T187 757Q187 748 165 737Q163 736 152
731Q138 719 126 657T109 532L104 438Q117 446 126 446Q160 446 182 416Q207 377 215 341Q229 284 233 245L235 220Q239 172 239 151Q240 134 240 113V83Q240 50 234 28Q225 2 202 -8Q189 -14 171 -14Q153 -14 139 -4ZM216 6T216 85Q216 141 212 198Q208 279 190
348Q182 384 168 404T134 424Q104 405 104 370V355Q104 228 129 81Q129 81 131 67L136 38Q139 26 149 16Q159 6 179 6Q216 6 216 85Z" />
<glyph unicode="7" glyph-name="seven" horiz-adv-x="293" d="M81 -2Q81 17 92 47L99 70Q116 142 127 221T153 430L171 592L178 638Q188 697 188 740Q188 746 154 746Q137 746 124 745L95 743L80 753L88 762L142 764Q165 765 194 765Q201 765 207 760T217 747Q210
730 210 702Q210 686 209 681Q203 604 164 330T116 42L117 34Q117 18 110 3T93 -13L81 -2Z" />
<glyph unicode="8" glyph-name="eight" horiz-adv-x="291" d="M135 -38T121 -25T100 12Q85 56 85 91Q85 243 118 369L124 386Q132 410 132 424Q132 430 128 445L117 481L109 503Q63 646 63 704Q63 736 76 759Q89 786 122 786H140L149 782Q161 777 167 771Q173
765 174 761Q193 719 193 650Q193 593 173 492L159 424Q159 419 167 399Q171 389 171 388Q237 190 237 51Q237 44 236 39L234 27L235 22Q219 -11 201 -24T153 -38Q135 -38 121 -25ZM170 566T170 652Q170 703 158 739Q149 764 134 764H129Q127 763 124 763Q116 763
111 766Q88 748 88 702Q88 681 97 627T119 526T141 473Q170 566 170 652ZM184 -19T198 2T213 58Q213 156 175 292L168 323Q159 366 148 385Q130 360 119 263T108 82Q108 63 122 29L121 26Q122 9 131 -5T153 -19Q184 -19 198 2Z" />
<glyph unicode="9" glyph-name="nine" horiz-adv-x="288" d="M163 -13Q172 13 172 76L174 216Q177 309 177 355L176 409Q175 433 175 463L168 461Q134 465 106 483T60 527Q24 580 24 643Q24 703 53 742T133 782Q150 782 170 775T198 757Q205 746 205 597V538Q204
512 204 479Q204 470 200 459Q197 447 197 439L195 271Q194 196 194 102Q194 88 190 65Q187 40 187 28Q187 21 188 17V5Q188 -23 171 -23L163 -13ZM176 489Q181 587 181 703Q181 733 170 748T134 763Q93 763 72 737T51 667Q51 628 66 588T106 519Q134 490 162 487L176
489Z" />
<glyph unicode=":" glyph-name="colon" horiz-adv-x="177" d="M82 476T75 483T68 500Q68 510 76 518T94 527Q103 527 111 519T119 501Q119 476 90 476Q82 476 75 483ZM72 98T66 105T59 122Q59 132 66 140T84 149Q93 149 100 141T108 123Q108 98 81 98Q72 98 66 105Z" />
<glyph unicode=";" glyph-name="semicolon" horiz-adv-x="189" d="M99 476T93 483T86 500Q86 510 94 518T112 527Q121 527 128 519T136 501Q136 476 108 476Q99 476 93 483ZM74 20T74 25Q74 30 82 41Q91 53 91 53Q98 64 103 81Q106 90 106 95T105 102Q93 103 86
112T78 131Q78 145 89 153T115 161Q131 161 137 150T144 125Q144 101 129 70T91 19L85 18Q74 20 74 25Z" />
<glyph unicode="&lt;" glyph-name="less" horiz-adv-x="342" d="M252 0T250 1L243 2H241Q225 26 201 80L184 118L134 222L124 244Q115 259 112 268Q109 277 90 302Q72 326 72 341Q72 352 95 409L147 528Q174 587 181 609Q181 612 187 628Q195 662 206 681Q212
693 219 694L232 684Q228 654 209 606T164 507Q140 459 124 414T107 342Q107 334 175 194T261 26L270 19Q268 13 264 7T256 0Q252 0 250 1Z" />
<glyph unicode="=" glyph-name="equal" horiz-adv-x="371" d="M71 352T71 363Q71 367 72 369Q74 372 161 372H274Q280 372 284 369T289 360Q289 356 288 355Q288 352 182 352H85Q71 352 71 363ZM263 292T70 292Q66 292 63 296T60 306Q60 311 65 311H105L262 310Q265
310 267 307T270 298Q270 290 263 290Q263 292 70 292Z" />
<glyph unicode="&gt;" glyph-name="greater" horiz-adv-x="342" d="M78 0T74 6T68 19L77 26Q98 64 164 199T231 342Q231 368 215 413T174 507Q149 557 130 605T106 684L119 694Q125 693 132 682T143 657Q144 653 151 629L157 609Q164 587 191 528L209 486L242
409Q266 354 266 341Q266 326 248 302Q229 277 226 268L214 243Q205 227 204 222L118 44L97 2L89 1L82 0Q78 0 74 6Z" />
<glyph unicode="?" glyph-name="question" horiz-adv-x="241" d="M98 115T96 127Q96 280 115 400Q120 431 131 473Q144 527 150 565T156 636Q156 687 144 724Q135 749 120 749H109Q74 749 74 687Q74 669 81 626Q72 622 64 622Q57 622 56 626Q49 661 49 688Q49
719 61 744Q67 756 79 763T107 771Q148 771 161 749Q171 729 176 698T182 637Q182 548 150 438Q137 392 128 321T118 174L119 118Q119 119 119 119T118 119Q110 115 107 115Q98 115 96 127ZM98 -4T92 3T85 20Q85 30 93 38T111 47Q120 47 127 39T135 21Q135 -4 107
-4Q98 -4 92 3Z" />
<glyph unicode="@" glyph-name="at" horiz-adv-x="519" d="M154 -39T100 78Q100 89 92 105Q87 117 87 118Q77 146 66 266T54 442Q54 579 71 664Q79 704 86 728T106 773Q119 796 136 809T181 830Q211 837 243 837Q275 837 303 827T352 801Q369 787 386 761T413
708Q421 688 430 652T443 591Q444 583 446 569T452 531L455 515Q470 407 470 383Q470 218 396 218Q381 218 367 229Q354 239 345 243Q332 212 305 191T247 170Q228 170 213 179T187 202Q168 227 157 278Q150 315 148 367Q147 379 147 408V433Q147 473 151 518Q155
560 168 598Q176 618 186 630T213 649Q229 657 249 657Q288 657 314 628Q319 622 326 589Q334 544 350 417L359 330Q363 285 365 277L376 272Q388 247 397 247Q436 247 436 389Q436 551 380 699Q357 758 325 783T238 808Q190 808 160 788Q136 772 120 734Q108 703
104 658L101 616L100 601L99 583Q99 577 98 568T95 551Q94 547 92 538T87 521L89 482Q89 462 85 450Q87 444 87 437Q87 389 91 355L96 309Q103 250 105 205Q108 159 111 141T125 92Q140 53 167 19T223 -16Q277 -16 318 2T401 63Q420 82 423 82L432 73Q425 49 401
27T344 -10Q312 -24 281 -31T227 -39Q154 -39 100 78ZM270 199T286 217T314 261T325 306V381V402L323 422L321 443Q319 450 319 455T318 463Q315 494 311 503Q311 502 307 524Q304 542 303 544L300 564Q299 571 297 581T291 602Q287 612 282 617T269 626Q257 630
249 630Q233 630 221 620T202 593Q196 579 193 557T188 515V476V348Q188 315 189 295T197 251Q209 199 254 199Q270 199 286 217Z" />
<glyph unicode="A" glyph-name="A" horiz-adv-x="353" d="M255 0T250 5T244 17V148Q244 160 193 170T109 180Q107 180 103 165T96 143Q83 91 70 32L65 10Q63 2 55 2Q47 2 41 7T34 19L35 21V22L46 72Q58 119 67 164Q77 215 82 230Q90 263 114 395L120 428Q146 582
156 622Q161 646 174 693Q179 713 188 733Q197 750 203 750Q219 750 226 740Q231 731 241 641T260 459L273 293Q273 250 279 163Q285 75 285 32V28Q285 17 282 8Q278 0 263 0Q255 0 250 5ZM243 193T243 203Q243 265 236 372T221 562Q219 597 213 639L209 678Q209
677 207 689L205 701Q197 679 190 640T174 548Q150 399 133 324L124 290Q109 240 109 214V208Q153 194 210 194H216Q219 193 223 193Q243 193 243 203Z" />
<glyph unicode="B" glyph-name="B" horiz-adv-x="322" d="M75 -6T75 8Q75 50 78 135L80 261Q80 331 77 470Q73 593 73 678Q73 750 99 750Q166 750 202 707T239 593Q239 513 175 427Q228 374 249 326T271 211Q271 170 269 146T259 100Q252 78 240 62T206 32Q186
18 154 4Q142 1 134 -1Q121 -6 114 -6H112Q75 -6 75 8ZM133 432T153 451T186 501Q199 530 206 561T213 619Q213 654 188 685T130 716Q104 716 104 673Q104 606 106 553L108 433L111 432Q133 432 153 451ZM153 33T181 53T226 108T243 181Q243 360 157 396Q149 396
131 391Q114 385 108 385Q113 222 113 34H116L119 33Q153 33 181 53Z" />
<glyph unicode="C" glyph-name="C" horiz-adv-x="330" d="M174 -16T143 6T99 56Q87 82 75 221T62 428V481Q61 504 61 532Q61 584 67 635Q71 660 77 678T96 713Q118 747 162 758Q185 764 213 764Q232 764 251 753T271 727Q271 716 255 716Q249 716 232 723Q217
730 205 730Q177 730 155 719T119 688Q108 672 100 644T90 588Q87 563 87 528L88 472Q89 448 89 420Q89 351 103 217T130 62Q142 43 165 33T215 23Q261 23 285 52Q294 64 304 64Q313 64 313 50Q313 32 302 19T272 -2Q240 -16 202 -16Q174 -16 143 6Z" />
<glyph unicode="D" glyph-name="D" horiz-adv-x="381" d="M104 -2T92 4T80 18Q80 24 88 38Q96 51 95 58L92 146L85 419L83 540Q82 651 78 679Q76 690 70 704Q63 723 63 731Q63 755 139 755H144Q195 755 232 720Q261 693 284 635Q300 589 308 532Q312 502 315 440V409Q315
347 299 275T252 139Q234 99 206 67T151 17T116 -2Q104 -2 92 4ZM131 49Q168 68 197 104T243 185Q258 222 268 269T282 358Q285 394 285 427Q285 719 124 719Q103 719 103 708Q103 673 107 625Q111 576 111 542Q111 487 119 351Q126 233 126 161V49H131Z" />
<glyph unicode="E" glyph-name="E" horiz-adv-x="249" d="M90 -6T81 -2T71 16V35Q70 43 70 53V55L71 201L70 614Q70 678 68 725Q68 737 73 745T86 753H148Q162 753 169 751Q179 748 179 734Q179 726 173 721T160 715H143L127 716L111 717Q104 717 102 715T99 705Q99
658 100 620V535V410Q100 408 102 408H103H104Q129 410 158 410Q174 410 174 396Q174 386 171 383T159 379H102Q98 379 98 374L100 226Q102 157 102 67V30H145H187H196Q214 30 214 17Q214 1 205 -2Q193 -6 156 -6H114Q90 -6 81 -2Z" />
<glyph unicode="F" glyph-name="F" horiz-adv-x="256" d="M95 -2T95 24V98L92 159Q83 323 83 400Q83 442 72 662Q70 710 69 723T68 738V745Q68 752 78 754Q84 756 113 756H135H163Q171 756 175 750T179 733Q179 723 161 723L138 724H112Q104 724 102 721T100 705Q100
685 107 559Q114 433 114 412Q126 412 148 418Q171 424 182 424Q188 424 192 417T197 404Q197 393 181 390T135 384Q114 381 114 372Q114 327 124 204Q133 92 133 35L130 30Q133 23 133 17Q133 -2 111 -2Q95 -2 95 24Z" />
<glyph unicode="G" glyph-name="G" horiz-adv-x="384" d="M133 -16T97 92Q61 200 61 428Q61 477 63 515Q65 561 77 614Q82 641 89 661T110 703Q133 743 174 759Q196 767 220 767Q250 767 250 750Q250 738 235 738Q231 738 221 741L207 743Q174 743 150 716Q133
696 117 647Q106 607 102 558Q99 531 96 470L95 404V349Q95 252 109 172Q119 122 132 89T169 35Q194 12 223 12Q276 12 308 62Q308 89 304 133Q301 155 296 174Q290 191 282 191L263 189L242 187Q219 187 219 204Q219 212 247 219T294 226Q310 226 317 215T325
184Q325 162 335 95Q345 39 345 6Q345 -10 332 -10Q308 -10 308 12L309 15V17Q252 -16 208 -16Q133 -16 97 92Z" />
<glyph unicode="H" glyph-name="H" horiz-adv-x="327" d="M232 -10T229 -6T226 6V18Q227 22 227 29Q227 166 217 376H210H191H172Q116 376 102 373Q102 300 110 192Q119 69 119 11Q119 -4 108 -4Q93 -4 93 10Q92 59 89 145T82 292Q63 530 63 748Q63 758 76 758Q82
758 85 755T88 745V671Q88 644 93 569L95 535Q97 479 97 468V419Q97 393 102 393L140 395L160 397Q210 401 217 401L218 403Q218 447 213 572Q208 699 208 742Q208 754 222 754Q229 754 234 751T239 741Q239 546 246 312Q253 77 253 24V10Q253 2 250 -4T240 -10Q232
-10 229 -6Z" />
<glyph unicode="I" glyph-name="I" horiz-adv-x="270" d="M119 5T82 5Q75 5 70 10T64 21Q64 34 81 34H120Q120 149 113 324Q109 464 105 544L106 595V661Q106 711 104 725H69Q59 725 59 739Q59 748 67 753Q74 756 104 756H132Q147 755 170 755Q178 755 183 752T188
741Q188 735 185 730T176 725Q169 725 164 726H152H142Q132 726 130 724L128 720Q128 642 141 405Q153 186 153 90V62Q152 49 152 35H188Q211 35 211 21Q211 15 207 10T197 4H143Q119 5 82 5Z" />
<glyph unicode="J" glyph-name="J" horiz-adv-x="232" d="M34 -97T34 -78Q35 -68 58 -54L70 -45Q114 -2 114 108Q114 176 109 256Q104 363 104 391L98 546Q93 678 93 727Q77 727 63 726L33 725Q27 725 24 729T20 740Q20 752 28 755Q36 759 66 759L104 758H157Q164
758 168 753T173 742Q173 733 168 730T146 727H124Q124 592 135 390Q137 363 139 298Q146 173 146 149Q146 107 145 83T138 31Q133 2 124 -18T97 -59Q80 -81 55 -97Q34 -97 34 -78Z" />
<glyph unicode="K" glyph-name="K" horiz-adv-x="315" d="M281 -16T278 -9Q277 -3 254 75L219 197Q164 387 148 432L142 449Q141 447 139 443T130 430Q118 408 110 396L96 373V17Q96 0 93 -6T80 -13Q70 -13 67 -6T63 19V321Q63 380 66 513L68 705Q68 724 70 740Q73
752 81 752Q96 752 99 745Q103 738 103 709L101 543L99 422H100Q119 464 154 548L191 641Q247 780 262 780Q269 780 274 776T279 765Q276 746 263 725L253 707Q236 667 203 587Q163 490 160 485Q159 478 161 473Q181 422 206 347T247 217Q264 157 281 95T306 6Q308
0 308 -1Q308 -8 303 -12T290 -16Q281 -16 278 -9Z" />
<glyph unicode="L" glyph-name="L" horiz-adv-x="247" d="M97 -6T93 0T88 15V31V55Q88 118 83 197Q79 281 79 339Q79 393 74 548Q68 688 68 757Q68 762 72 765T83 769Q101 769 101 754Q101 569 104 477L109 298Q109 256 115 161L121 37Q121 34 124 34Q125 33 137
33H199Q212 33 212 15Q212 7 209 2T200 -4L193 -5H185Q164 -6 104 -6Q97 -6 93 0Z" />
<glyph unicode="M" glyph-name="M" horiz-adv-x="458" d="M357 -23T353 -17T348 5V96Q348 164 344 261Q343 279 343 313Q340 384 340 425L341 481Q342 506 342 537Q342 564 341 585Q340 600 340 610T338 626L336 619Q325 546 303 427T267 236Q253 172 249 145Q247
132 241 124T226 116Q218 116 212 124T205 147Q198 195 154 415T105 643Q102 553 102 441Q102 353 103 282Q104 211 104 123Q104 108 107 76L109 28Q109 9 102 2Q73 2 73 54V221L74 322Q75 367 75 424Q75 490 76 542L78 661V749Q78 754 82 758T92 762Q100 762 103
754Q112 724 148 577T202 350Q211 303 231 184L238 223Q241 241 247 273Q259 351 262 361L308 606L317 658L328 714L333 744Q334 754 339 759T350 765Q355 765 359 760T363 746V647Q363 572 372 420Q379 280 379 195Q379 168 382 112Q384 40 384 12Q384 -10 381
-17Q377 -23 370 -23Q357 -23 353 -17Z" />
<glyph unicode="N" glyph-name="N" horiz-adv-x="380" d="M265 -11T259 -4T251 12L248 31Q245 43 245 46Q133 447 122 496Q113 532 81 696Q80 690 80 655V293L82 150L84 8L78 0H55L52 8Q54 18 54 48L53 222L51 396V527V622Q50 664 50 716Q50 722 49 727V737Q49
749 55 753T76 758Q82 758 89 752T99 739L120 641Q134 571 144 535Q165 452 216 263Q245 139 268 73Q274 88 274 121Q274 218 276 295L278 469Q278 512 279 547V624L278 765Q283 779 299 779Q307 779 307 750Q307 737 306 729Q306 721 306 718T305 713V649Q305
516 304 412Q303 307 303 176Q303 151 300 97L298 18Q298 -11 272 -11Q265 -11 259 -4Z" />
<glyph unicode="O" glyph-name="O" horiz-adv-x="368" d="M61 -21T61 460V500Q61 584 71 646Q77 685 87 710T116 750Q133 767 160 767Q184 767 204 758T237 733Q248 719 257 696T271 652L279 605Q303 434 303 302V299Q303 249 301 207Q299 157 290 102Q286 75
279 55T259 15Q238 -21 200 -21Q61 -21 61 460ZM218 7T231 25T251 77Q267 147 271 214Q273 268 273 319V323L272 423Q270 477 260 563Q252 624 227 688Q217 713 201 727T165 741Q148 741 135 725T114 680Q96 613 94 556Q91 507 91 455V406Q91 339 104 236Q112 171
124 123T156 42Q176 7 202 7Q218 7 231 25Z" />
<glyph unicode="P" glyph-name="P" horiz-adv-x="276" d="M76 -6T76 29Q76 79 75 118L73 208V289Q72 325 72 370Q72 504 67 618L66 654Q63 713 63 750L66 754Q67 756 70 759Q71 762 75 763Q77 764 82 764Q117 764 145 748T192 704Q227 649 227 579Q227 534 213
487T169 402Q139 361 102 354L104 243L106 189Q110 93 110 25Q110 9 106 2T88 -6Q76 -6 76 29ZM111 392T120 399Q122 400 127 407Q127 407 134 414Q199 479 199 577Q199 633 177 681Q165 706 142 720T88 735Q88 678 94 564Q100 450 100 393L102 391Q111 392 120
399Z" />
<glyph unicode="Q" glyph-name="Q" horiz-adv-x="369" d="M288 -138T276 -132Q265 -125 262 -125Q244 -117 234 -96T218 -35Q212 4 208 13Q180 13 157 22T118 49Q91 77 75 135Q69 155 66 184T63 235Q62 248 62 280V325Q61 346 61 374Q61 434 64 510Q67 576 77
638Q87 696 108 732Q129 770 165 770Q200 770 234 742T274 679Q302 519 302 290Q302 115 240 26Q240 20 245 7L250 -7L253 -34Q256 -61 258 -72T269 -94Q278 -106 294 -106H298Q330 -106 330 -119Q330 -138 292 -138Q288 -138 276 -132ZM234 39T250 133Q267 230
267 433V459L266 522L265 549Q264 573 260 595T252 641Q245 679 221 713Q201 742 163 742Q147 742 135 720Q115 685 102 580Q93 510 91 410Q90 388 90 348V288Q90 231 102 173Q109 133 120 106T151 59Q171 39 197 39Q234 39 250 133Z" />
<glyph unicode="R" glyph-name="R" horiz-adv-x="283" d="M224 -10T219 10L207 54Q179 147 166 211Q158 246 146 308Q132 380 120 425L110 419L97 413L99 28V13Q99 -7 81 -7Q73 -7 68 -2T63 10V25L65 227L67 324Q71 499 71 622V751Q71 760 89 760Q115 760 137
746T173 708Q200 659 200 601Q200 555 180 501Q174 486 165 467T149 440Q170 363 210 203L257 23Q258 20 258 12Q258 3 255 -3T244 -10Q224 -10 219 10ZM104 446T123 465T150 497Q157 511 162 539T167 589Q167 630 153 673Q146 698 132 713T101 729H99Q98 728 96
728V446Q104 446 123 465Z" />
<glyph unicode="S" glyph-name="S" horiz-adv-x="303" d="M97 -22T88 -21T67 -14Q55 -8 49 3Q49 15 60 15Q71 15 88 8Q104 0 115 0Q137 0 155 18T184 65Q204 122 204 166Q204 215 190 265T153 359Q148 370 136 392Q111 442 98 470T75 532Q61 577 61 629Q61 662
71 692T105 745Q130 768 161 768Q173 768 190 759T207 740Q207 732 201 732Q195 732 185 737Q176 742 168 742Q145 742 128 725T102 683Q95 662 95 637Q95 598 105 557T132 479L167 406L177 385Q198 342 209 314T229 251Q240 204 240 161Q240 103 210 43Q195 14
170 -4T115 -22Q97 -22 88 -21Z" />
<glyph unicode="T" glyph-name="T" horiz-adv-x="319" d="M155 -6T150 1T145 20V109V198L143 358Q140 465 140 518L141 547V612Q141 720 139 720H26Q18 720 12 724T5 735Q5 743 8 746T24 751Q38 754 64 754H164L274 755Q286 755 290 751T295 738Q295 723 276 723H231H187L178
722L179 664V586V180V97L180 23V21Q180 13 179 8T175 -1Q172 -6 165 -6Q155 -6 150 1Z" />
<glyph unicode="U" glyph-name="U" horiz-adv-x="372" d="M184 -19T164 -9T131 17Q118 32 108 54T92 98Q82 132 77 183L75 214Q75 224 75 227T74 231Q69 280 62 447T54 707V714V722Q54 748 69 748Q90 748 90 724V717L89 709Q89 593 96 435T110 206Q115 162 127
116Q135 85 144 64T169 29Q187 13 204 13Q221 13 234 21T255 42Q262 53 266 70T272 104Q273 114 273 137V251Q273 327 269 438L265 566L263 651Q260 707 260 736Q260 747 266 753T280 759Q288 759 293 753T299 736V660Q299 610 300 570V480Q300 383 302 310Q303
236 303 144Q303 119 301 100T293 60Q287 36 277 20T249 -8Q230 -19 207 -19Q184 -19 164 -9Z" />
<glyph unicode="V" glyph-name="V" horiz-adv-x="325" d="M171 -8Q159 -5 160 -5Q142 69 120 216L65 573L56 617Q34 703 34 738Q34 745 38 750T48 756Q51 756 55 754Q60 752 64 743Q68 735 68 728L70 714L84 637L93 584L143 241L156 146Q164 98 169 55L176 126L187
241L211 460Q220 553 224 582L229 634L236 684Q241 714 243 740Q245 759 262 759L268 755H266L276 747Q276 718 268 662L262 623L259 598Q246 489 243 462Q228 335 212 187T194 13Q186 -9 175 -9L171 -8ZM170 49L169 52L167 49H170Z" />
<glyph unicode="W" glyph-name="W" horiz-adv-x="461" d="M132 -13T132 9V21Q133 25 133 31V36L115 157Q108 195 106 212Q97 282 87 368Q79 436 59 592L56 615Q41 728 34 739Q37 744 43 748T55 752Q70 752 75 747T81 729V720V710V699Q112 372 146 87H148Q151 116
160 246L162 275Q169 402 170 409Q173 439 182 497L194 578L197 624Q198 636 198 644T200 657L201 670Q201 671 202 673T207 677Q221 677 225 670Q228 667 229 664T230 655Q232 646 232 646Q242 593 275 370T315 76L318 74L355 479Q357 517 368 599Q378 682 378
734L377 744V753Q377 766 383 771T403 777Q409 777 415 772T422 761Q422 751 411 742Q412 741 412 736Q412 730 411 724T408 714Q397 624 381 449L361 242L353 163L341 62L336 11Q336 -1 333 -7T318 -13Q302 -13 299 -1Q297 5 295 27L294 42Q270 196 222 590L219
592L218 591V590L168 44V26Q168 -13 151 -13Q132 -13 132 9Z" />
<glyph unicode="X" glyph-name="X" horiz-adv-x="280" d="M45 -6T40 -2T34 6Q34 15 53 83Q78 177 99 276L109 326Q115 352 117 377Q118 386 118 401Q118 434 113 469T94 560L78 629Q76 642 71 655L65 675Q55 709 53 730Q62 743 69 743Q77 743 82 739T88 728Q89
725 89 713Q90 707 90 700L114 581L121 546Q125 522 130 497T139 450Q145 496 178 674Q178 674 180 689Q183 712 188 733Q191 745 196 751T208 758Q226 758 226 747Q226 739 220 724Q213 707 213 707Q199 652 172 518L162 464Q155 419 154 410Q152 392 152 386L205
116L216 65L218 53Q220 45 220 34Q220 13 204 13Q199 13 196 13T189 17Q186 20 186 26Q186 44 181 81Q181 82 176 110Q177 106 171 136L164 172Q141 288 135 307Q131 300 106 186T74 30L73 23L71 11Q69 6 66 1Q65 -2 62 -3T57 -5L49 -6Q45 -6 40 -2Z" />
<glyph unicode="Y" glyph-name="Y" horiz-adv-x="252" d="M123 -12T119 -5T115 12Q115 44 118 108L120 205Q120 219 117 246Q113 270 113 286Q113 303 107 333Q101 365 101 379Q101 391 91 436Q88 445 87 450T85 458Q81 486 72 527Q55 620 39 674Q24 722 24 739Q24
746 30 750T44 755L56 747Q59 702 83 587T119 454Q121 459 129 541Q136 614 149 686Q161 752 178 752Q183 752 186 752T191 749Q193 747 193 741Q193 732 189 720L185 700L159 551Q154 522 150 480T146 405Q146 396 147 389Q148 381 148 372L142 357V349L144 310L146
289Q149 249 149 229Q149 71 147 27L150 24Q150 22 151 21V17Q151 5 146 -3T129 -12Q123 -12 119 -5Z" />
<glyph unicode="Z" glyph-name="Z" horiz-adv-x="247" d="M41 -9T34 4Q54 39 64 85T83 199Q89 259 95 287L141 619Q144 639 146 654Q154 708 154 732Q143 732 121 729L87 727Q42 727 42 747L49 755Q55 753 73 753Q87 753 120 758Q146 763 167 763Q183 763 183
745Q172 721 167 649Q165 614 163 605L133 378Q108 182 93 95Q92 85 81 59Q70 32 70 19L103 21Q124 24 135 24Q177 24 177 4L168 -5Q135 -5 109 -7L49 -9Q41 -9 34 4Z" />
<glyph unicode="[" glyph-name="bracketleft" horiz-adv-x="260" d="M137 -43T98 -36T59 -17Q59 29 69 106Q80 192 80 230Q80 318 93 477Q105 641 105 723Q105 728 101 735Q96 743 96 746L116 758Q145 758 164 757Q206 755 221 749Q230 745 230 738Q230 733 226
730T215 727Q205 727 187 730Q167 733 159 733Q128 733 128 712Q128 654 126 580T121 455L111 306L109 277Q103 195 103 181Q95 41 90 25V1L85 -7L119 -9Q151 -11 168 -16Q188 -20 188 -33Q188 -43 171 -43Q137 -43 98 -36Z" />
<glyph unicode="\" glyph-name="backslash" horiz-adv-x="332" d="M234 -1T228 14Q222 30 220 45L217 59L197 146Q189 175 183 205L168 268L157 315Q130 426 110 516Q92 601 84 643Q83 645 82 651T78 668L68 711Q64 730 64 735Q64 741 68 744T79 748Q82 748 83
745Q86 741 91 724L94 713Q96 707 96 707Q145 518 221 189L235 133Q256 51 256 15Q256 4 246 -3Q234 -1 228 14Z" />
<glyph unicode="]" glyph-name="bracketright" horiz-adv-x="250" d="M71 -43T71 -33Q71 -20 92 -16Q109 -11 142 -9L174 -7L170 1V25Q163 40 152 249T137 588Q137 607 134 647Q131 689 131 712Q131 723 128 727T114 732L86 730L58 728H53Q29 728 29 738Q29 744
39 749Q54 755 96 757Q115 758 144 758L164 746Q164 743 159 735Q154 727 154 723Q154 649 168 486Q181 334 181 249Q181 214 191 116Q201 32 201 -17Q201 -28 162 -35T88 -43Q71 -43 71 -33Z" />
<glyph unicode="^" glyph-name="asciicircum" horiz-adv-x="304" d="M228 176T220 208Q214 227 208 261Q204 277 204 278Q180 370 147 597Q139 573 134 543T122 461L113 399Q98 307 73 185L60 180Q56 181 53 184T49 190Q49 209 64 276L70 309L78 361Q85 413 89
438T98 480T105 505Q114 542 117 562Q119 570 119 585Q123 624 128 647Q132 663 140 672T159 681L170 672Q170 639 174 597Q178 555 184 521L194 446Q203 392 228 292L237 261Q241 246 244 235T250 214Q255 191 255 188Q255 185 251 181T242 176Q228 176 220 208ZM149
602L148 604V600L149 602Z" />
<glyph unicode="_" glyph-name="underscore" horiz-adv-x="364" d="M61 -24T55 -20T49 -7Q49 -4 187 -4H330Q338 -4 345 -9T352 -21H321Q321 -24 217 -24H69Q61 -24 55 -20Z" />
<glyph unicode="`" glyph-name="grave" horiz-adv-x="332" d="M151 565T111 579T66 596Q60 594 50 594Q16 594 16 614Q16 632 22 636H28Q58 636 67 625Q67 624 79 621Q89 618 119 606Q143 596 160 587Q179 576 179 568Q179 565 175 563T167 560Q151 565 111 579Z" />
<glyph unicode="a" glyph-name="a" horiz-adv-x="313" d="M254 -9T250 -6T244 13Q235 86 233 104L228 144Q206 149 178 149L142 151Q118 154 107 154Q101 154 100 149Q100 146 99 146L97 126Q96 108 86 54Q81 27 74 12Q66 -5 59 -5Q53 -5 46 0T39 12L40 15L41
18Q59 89 71 159L83 221L95 297Q95 297 106 363Q111 390 124 450Q138 518 141 543Q142 546 145 580Q149 618 152 636Q155 662 158 666H165Q168 665 172 665Q184 665 190 671Q197 671 202 667T208 656Q208 608 215 546Q219 514 221 493Q232 364 277 9V6Q277 -4 269
-9Q254 -9 250 -6ZM223 171Q213 315 185 596L131 329Q108 214 108 184Q108 179 146 175T213 171H223Z" />
<glyph unicode="b" glyph-name="b" horiz-adv-x="283" d="M80 -11T75 -5T69 10L68 41Q68 77 74 147Q79 225 79 252L78 297Q77 317 77 341Q77 381 80 460Q83 541 83 580L82 638L78 643V649Q78 675 99 675Q115 675 151 663T188 642V639Q206 610 212 581T219 507Q219
434 203 388H204Q200 380 188 362L174 341Q192 327 204 300T220 248Q221 239 222 226T224 195L225 169V155Q225 59 165 13Q134 -11 88 -11Q80 -11 75 -5ZM119 361Q185 361 185 494Q185 505 183 537L182 556L180 558Q176 591 169 610Q164 624 153 632T129 641Q107
641 107 510Q107 485 108 476V456V422Q107 406 107 386V374Q107 374 109 368L111 361H119ZM128 28T148 44T181 85T193 136L194 140V148V159Q194 201 187 239Q176 290 148 313Q132 326 110 326Q105 243 105 190V167Q105 138 108 121Q103 112 103 73V47L104 28Q128
28 148 44Z" />
<glyph unicode="c" glyph-name="c" horiz-adv-x="285" d="M146 -7Q127 -1 114 10T88 43Q67 83 63 158Q61 192 61 218V332Q61 397 65 458Q68 503 74 534T93 596Q107 628 124 641Q131 647 151 655Q164 660 176 666H216H219Q220 665 222 665L227 664L231 661Q234
658 234 657Q235 655 235 651L222 636H180Q161 636 146 618T122 571Q114 546 109 512T103 453Q101 421 101 409L99 404Q99 348 97 303L95 202Q95 158 101 121Q106 81 130 49Q153 17 201 17Q216 17 226 26Q241 26 241 15Q241 8 229 -1T203 -16H170L146 -7Z" />
<glyph unicode="d" glyph-name="d" horiz-adv-x="348" d="M83 -5T83 22Q79 91 79 196Q79 262 80 314L81 432Q81 508 77 620Q68 628 68 640Q68 647 76 654T92 662Q100 662 107 654L118 645Q124 642 141 639Q158 636 165 633Q180 625 205 602Q229 578 238 572L237
570Q238 564 252 544Q263 529 270 516Q286 470 286 397Q286 384 285 374V350V342L284 332Q284 313 290 302Q284 270 275 181Q272 155 265 126T248 78Q222 29 161 -5H91Q83 -5 83 22ZM157 24Q164 32 170 37Q170 37 177 42L185 49Q255 112 255 289V308Q254 316 254
325L250 426Q247 484 215 546Q200 577 175 596T121 616Q109 616 109 431Q109 217 121 58L120 39L124 37L126 24H157Z" />
<glyph unicode="e" glyph-name="e" horiz-adv-x="256" d="M73 -13T71 8V21Q72 26 72 33L68 37Q76 58 76 78Q76 101 73 144L71 210Q71 260 74 360Q78 449 78 511L76 571Q74 598 74 631Q74 646 81 652T103 659Q113 659 119 653Q121 652 148 649Q173 646 191 640Q210
634 210 625Q210 615 191 605Q134 624 110 624L105 618Q106 609 106 575Q106 532 104 498Q103 463 103 420Q103 392 117 392L133 393Q141 394 150 394Q189 394 189 376Q189 365 184 358T169 350Q154 350 146 358L114 363H109L104 358V355Q106 338 106 276Q106 237
105 205L104 134Q104 95 107 54Q108 31 117 24T150 16L168 17Q177 18 188 18Q217 18 217 5Q217 -13 173 -13H91Q73 -13 71 8Z" />
<glyph unicode="f" glyph-name="f" horiz-adv-x="272" d="M73 1Q83 92 83 244Q83 311 89 446Q96 571 96 647Q96 656 104 661T124 666Q159 666 201 658T243 637Q243 620 208 620Q186 630 152 630L140 629Q137 628 136 626T133 620Q131 612 129 609Q129 564 125
503Q120 444 120 398V363Q120 359 136 360Q187 360 187 344Q187 336 180 331T163 325Q157 325 146 328Q136 331 129 331Q111 331 111 282V169Q111 145 114 98Q117 50 117 26Q117 -14 93 -14L73 1Z" />
<glyph unicode="g" glyph-name="g" horiz-adv-x="339" d="M144 -7T122 4T90 46T71 147Q59 248 59 304Q59 338 63 382L69 445Q74 520 80 558T109 626T179 661Q184 662 195 662Q226 662 226 648Q226 642 220 638T206 633L196 634L187 635Q170 635 157 624T134 592Q113
542 107 494Q99 431 97 384L96 307Q96 258 99 234Q106 223 108 201T113 139Q115 104 122 80T147 39Q167 22 202 22Q231 22 243 54Q257 88 259 124Q262 169 262 200V255Q252 265 227 265H219Q214 264 208 264Q184 264 184 276Q184 293 208 293Q225 293 236 292L258
291Q277 288 288 284Q300 280 300 273Q300 260 294 236Q289 208 289 198Q289 156 291 122Q292 87 292 45Q241 -7 190 -7Q144 -7 122 4Z" />
<glyph unicode="h" glyph-name="h" horiz-adv-x="327" d="M252 -1T222 -1Q217 184 217 267L214 271L218 280Q218 298 214 317L199 321Q190 318 179 318Q171 318 146 323Q129 328 115 328L104 324Q104 289 103 261Q102 233 102 198L104 194Q104 166 107 110Q110
55 110 27Q110 16 106 9T94 1Q72 1 72 61Q72 112 73 153L74 244Q74 335 71 342Q76 352 76 408Q76 456 72 525L70 564L68 642Q68 649 73 655T85 661Q105 661 105 603Q105 535 104 480Q102 425 102 359Q102 347 178 347H182Q201 347 209 354T218 380Q218 433 211
518Q205 610 205 656Q205 662 210 666T222 671L231 668Q238 667 240 665Q240 587 246 432Q252 276 252 198Q252 80 259 0L252 -11Q252 -1 222 -1ZM189 361L191 359H189V361Z" />
<glyph unicode="i" glyph-name="i" horiz-adv-x="237" d="M103 0T99 10Q94 10 91 9H83Q61 9 55 19Q55 26 63 31L68 36H97L101 40L103 49L104 61Q104 122 101 170L99 207L97 280Q97 319 100 397L102 513Q102 589 97 629Q88 632 67 632L56 631Q50 630 43 630Q24
630 24 647Q24 651 33 655T48 659Q86 659 124 655Q147 654 170 646Q188 640 188 629Q188 627 185 621L162 619Q155 625 133 625L128 622Q131 613 131 569Q131 503 130 450L128 331Q128 286 132 222Q135 149 135 112V99Q134 92 134 81Q134 58 137 53L136 51Q136
41 158 41Q167 41 173 42H188Q217 42 217 28Q217 19 211 14T195 8Q186 8 179 10Q171 11 162 11Q156 11 144 6Q132 0 126 0Q103 0 99 10Z" />
<glyph unicode="j" glyph-name="j" horiz-adv-x="240" d="M8 -100V-98L7 -96Q7 -93 24 -82Q40 -70 60 -58Q82 -43 83 -41Q98 -24 106 12T115 84Q115 191 111 350Q106 498 106 615L100 626Q93 628 76 631Q57 632 42 639Q27 644 27 652Q27 656 35 660T48 664Q67
664 108 657T182 640T215 622Q215 616 211 613T199 609Q192 609 172 614Q157 619 145 619Q136 619 136 599Q136 544 141 391Q146 276 146 184V74Q140 61 140 32Q140 -10 116 -63Q103 -90 83 -106T38 -123H31L8 -100Z" />
<glyph unicode="k" glyph-name="k" horiz-adv-x="330" d="M267 -18T234 72Q203 155 180 252T155 388L152 392L137 360Q126 339 121 326T110 292Q104 273 104 253Q104 233 102 217L100 181V53Q100 44 103 24Q106 6 106 -4Q106 -9 101 -12T90 -16Q77 -16 73 -12T68
5V193Q68 209 73 256Q78 303 78 319Q78 361 83 416Q87 472 87 512V651Q93 662 106 662Q114 662 119 657T125 643Q117 625 117 595L115 490Q113 442 113 384Q123 387 191 522Q259 656 266 656Q292 656 292 639Q228 544 186 454L185 422Q184 408 184 390Q184 346
218 225T276 57Q287 42 289 40Q299 26 303 17T308 -3Q308 -10 303 -14T291 -18Q267 -18 234 72Z" />
<glyph unicode="l" glyph-name="l" horiz-adv-x="249" d="M76 -13T73 10Q75 16 75 43Q75 135 78 316Q81 496 81 576L83 612L86 642Q86 649 93 649Q98 649 107 646L110 645Q110 623 109 605V566V457Q110 409 110 348Q109 343 109 326L108 305Q107 285 107 264Q107
241 108 222L109 179L106 171L107 172Q107 169 106 168V164Q106 156 109 150L106 54V48Q106 31 107 28Q107 23 112 23L164 21Q187 21 195 21T206 20H209Q214 20 219 15T224 3Q224 -9 208 -10Q191 -9 125 -9L127 -10Q117 -10 108 -11Q100 -13 90 -13Q76 -13 73 10Z"
/>
<glyph unicode="m" glyph-name="m" horiz-adv-x="567" d="M447 -52T447 12V78Q447 222 441 303L438 340Q434 365 434 384Q434 418 436 446L438 508Q438 539 434 555Q414 541 313 134L312 119Q309 94 304 79Q301 68 296 62T283 56Q267 56 260 64T253 89Q253 116
228 229T173 446T132 561Q131 526 124 396Q110 166 110 34L111 -6Q107 -19 90 -19Q87 -19 80 -14T73 -5Q73 85 89 311Q104 521 104 626Q104 631 102 636Q99 642 99 645Q99 660 125 660Q142 660 145 645Q149 625 149 615L150 603Q155 577 179 523Q198 480 208 448Q214
424 219 409Q235 351 240 323L253 297Q256 282 265 248Q274 210 278 186T282 140Q293 157 344 344T405 584Q406 586 406 589T408 599Q410 612 417 638Q425 658 441 658Q448 658 457 652T466 640Q466 223 479 199V147Q478 124 478 94Q478 30 485 -2Q486 -3 486 -5T488
-10Q489 -14 489 -19Q489 -30 483 -41T467 -52Q447 -52 447 12ZM434 561H433L431 560L434 559V561Z" />
<glyph unicode="n" glyph-name="n" horiz-adv-x="460" d="M319 -4T316 2T309 20Q308 28 305 34L306 37Q298 84 272 152L254 204Q252 206 235 255L227 279Q137 557 114 580Q106 553 106 510Q106 487 107 470L108 431L107 407Q106 396 106 383Q106 361 108 345Q110
313 110 313H107Q107 146 114 129V39Q118 31 118 18Q118 10 113 4T99 -2Q78 -2 78 52L80 84Q82 99 82 117Q82 165 79 261Q76 357 76 405Q76 434 79 494Q82 553 82 582V595Q82 644 100 659L103 656L113 658Q117 657 122 652Q126 648 126 643L128 637Q128 635 128
634T129 632Q145 561 201 433Q258 298 272 254Q282 219 288 192Q307 107 333 61L335 64Q358 286 358 609L357 621Q356 626 356 634Q356 655 370 655Q379 655 385 646T392 626V559L387 551Q387 456 376 239T355 3L338 -1V-2L337 -1L327 -4Q319 -4 316 2Z" />
<glyph unicode="o" glyph-name="o" horiz-adv-x="346" d="M59 -19T59 349V384Q59 663 131 663Q136 663 145 660Q177 649 208 646Q227 642 246 607Q267 571 277 512T288 391L286 386Q286 353 287 327L288 267Q288 216 284 175Q278 113 264 68Q255 41 244 23T215
-7Q199 -19 176 -19Q59 -19 59 349ZM211 10T230 65Q249 121 253 179Q257 239 257 275Q257 315 251 393Q246 480 246 511L242 519L244 524Q244 568 220 600T160 632Q114 632 105 588Q103 573 101 545Q101 471 95 444Q95 429 92 397L90 350Q90 328 91 311L92 271Q92
224 100 163Q106 118 114 87T137 34Q152 10 172 10Q211 10 230 65Z" />
<glyph unicode="p" glyph-name="p" horiz-adv-x="263" d="M86 -12Q75 51 75 132Q75 164 78 225L80 318Q73 332 73 341Q83 357 83 433Q83 615 78 627Q87 652 92 652H136Q147 652 167 642T202 619Q227 596 227 501Q227 450 224 423Q222 404 218 393T204 368Q189
345 153 328Q138 320 111 312V193Q111 168 116 95L118 63L120 -2Q120 -20 101 -20L86 -12ZM147 346T167 373Q174 383 180 400T188 433Q194 462 194 500V527Q194 541 193 554T189 579Q185 592 179 600T161 615Q149 621 132 621Q120 621 115 615T110 594Q110 570
113 522L115 450Q115 424 113 403L111 356L118 346Q147 346 167 373Z" />
<glyph unicode="q" glyph-name="q" horiz-adv-x="344" d="M248 -212T228 -208T201 -196Q201 -154 193 -116Q193 -117 186 -72L178 -33Q150 -27 134 -20T103 4Q76 34 70 111Q59 229 59 345V350Q59 662 158 668Q166 665 180 662L201 655Q246 632 265 588Q286 539
291 493Q295 444 295 399V352Q295 281 280 155Q272 89 258 41T225 -19Q224 -20 218 -22Q206 -28 206 -34Q206 -69 214 -105Q215 -114 222 -144Q226 -160 229 -178Q236 -185 260 -185Q280 -185 280 -199Q280 -212 267 -212Q248 -212 228 -208ZM171 -7T180 -4Q191
-1 195 -1Q214 -1 231 51T257 169Q265 230 265 251V426Q265 642 155 642Q139 642 127 624T108 575Q92 510 88 442Q84 377 84 343L86 333L88 324V281Q88 -7 166 -7Q171 -7 180 -4Z" />
<glyph unicode="r" glyph-name="r" horiz-adv-x="290" d="M225 -12Q213 1 199 57T173 183Q165 240 150 296Q138 346 127 346H124Q102 346 102 332Q102 260 110 113Q114 23 119 8L111 -9H97L89 -1Q73 461 73 629Q73 640 74 647T81 660Q85 667 95 667Q146 667 177
642T208 570V497Q208 478 196 446T168 387L155 362Q166 311 198 179T234 38Q235 37 236 33T243 21Q250 7 250 -3Q250 -17 239 -17L225 -12ZM126 371T141 390T165 439Q181 500 181 536Q181 559 179 574T170 606Q158 641 113 641Q108 641 105 633T102 615Q102 548
104 494Q105 440 105 373L107 371Q126 371 141 390Z" />
<glyph unicode="s" glyph-name="s" horiz-adv-x="246" d="M72 -10T62 -4T51 12L56 20Q60 20 74 17Q85 13 92 13Q114 13 131 30T157 76Q171 128 171 174Q171 243 129 322Q103 368 89 395T64 457Q51 498 51 536Q51 572 69 621Q78 644 94 658T130 673Q143 673 155
664T168 645Q168 637 155 637Q151 637 145 640Q139 643 134 643Q119 643 107 631T89 600Q77 563 77 532Q77 513 82 493Q83 487 84 483T85 477L91 457L96 439L104 421Q107 414 110 409T117 398L129 377Q133 371 146 349T170 301Q180 280 185 262T194 217Q197 192
197 162Q197 114 184 72Q166 22 132 2Q113 -10 88 -10L83 -12Q72 -10 62 -4ZM163 640Q163 641 162 641V640H163Z" />
<glyph unicode="t" glyph-name="t" horiz-adv-x="297" d="M138 14L137 51Q136 67 136 87Q136 97 137 104L138 122Q138 132 134 146Q134 213 124 395Q114 571 113 634Q51 634 30 637Q10 642 10 653Q15 664 29 664Q59 664 116 660Q168 655 203 655H224L245 656Q263
656 263 643Q263 637 257 634T241 630Q221 630 199 632L156 634Q152 634 152 631Q151 628 151 612Q151 515 163 318Q174 114 174 25Q174 18 166 12T149 6L138 14Z" />
<glyph unicode="u" glyph-name="u" horiz-adv-x="366" d="M161 -15T143 -5T112 20Q98 38 90 121T80 311Q80 335 79 347Q77 598 71 644L77 658Q100 655 100 603L103 338Q103 310 108 232Q114 162 114 126Q114 12 189 12Q235 12 248 222L249 242Q256 517 256 649L255
658Q254 662 254 667Q254 678 271 678Q283 678 286 672Q288 662 288 637Q288 561 282 535L283 529Q283 516 280 489L278 449V439Q279 435 279 429Q277 405 277 383Q276 376 276 361Q274 266 272 196Q269 109 248 49Q226 -15 177 -15Q161 -15 143 -5Z" />
<glyph unicode="v" glyph-name="v" horiz-adv-x="356" d="M150 -3Q150 74 126 224T61 552L53 583L40 629Q34 650 34 655Q34 658 38 662T47 667Q61 667 69 636Q73 623 76 607T82 583Q84 568 85 565Q104 488 108 467L118 416L127 368L136 317Q139 290 144 270L159
172Q159 168 166 121L173 72Q193 137 207 270Q221 394 247 519Q269 627 278 676L291 681Q295 680 298 677T302 671Q302 649 293 611L287 585L270 506Q255 441 250 406T237 305L235 282Q230 228 228 209T216 160Q208 130 203 107L201 84Q199 49 193 22Q185 -12 161
-12L150 -3ZM172 69L171 67L172 65V69Z" />
<glyph unicode="w" glyph-name="w" horiz-adv-x="410" d="M277 -33T274 -21Q271 -9 271 2V11Q267 51 260 86Q251 135 248 162T239 260Q230 372 222 430Q213 504 203 514L197 460Q192 412 192 392Q192 350 188 308T174 201L162 118Q161 116 161 111T159 97Q157
69 148 23Q145 3 139 -9Q135 -21 127 -21Q113 -21 104 24Q97 64 91 151Q88 206 86 233T78 297L74 328Q66 382 64 405T60 472Q59 505 57 531T50 587Q46 612 37 640Q41 648 53 648Q65 648 70 625Q71 621 73 585V572Q74 551 96 374Q116 214 119 113Q123 104 124 86Q126
66 129 59H130L146 164Q146 178 152 212Q159 265 164 316Q169 377 170 422Q173 494 177 518L180 543Q184 581 184 580L202 588Q209 588 214 584T219 574Q219 571 216 566Q256 431 270 243L272 206Q273 161 279 129Q285 103 290 91Q302 125 310 257T318 486Q318
504 325 563Q332 612 332 641Q332 650 328 658Q328 674 348 674Q356 674 358 672T361 662Q361 634 356 619L358 613Q350 570 350 519Q350 510 352 508L346 488L349 481Q346 475 346 469L349 450L346 446Q346 411 338 290T326 136L320 109Q314 88 314 76Q314 44
311 15Q310 -5 303 -20Q296 -33 288 -33Q277 -33 274 -21ZM291 86L290 87V86H291Z" />
<glyph unicode="x" glyph-name="x" horiz-adv-x="249" d="M54 -3T54 9Q54 59 82 165Q110 270 110 322Q110 350 83 474T47 609V613Q48 614 48 615T48 616Q48 622 43 630Q39 642 39 642Q39 646 45 649T57 652Q65 652 70 640T78 615L79 592Q93 551 104 492Q117 426
125 399Q131 411 140 477T153 576Q159 657 166 659Q166 659 174 661L182 662L191 650Q175 627 175 562V556L176 550L175 549Q171 513 155 439Q138 357 138 315Q138 299 164 182T198 45Q198 44 203 37Q210 24 210 16Q210 10 206 6T195 2Q188 2 182 5L164 81Q140
171 126 248Q114 230 104 144Q94 55 86 34Q88 30 88 22Q88 12 85 5T73 -3Q54 -3 54 9Z" />
<glyph unicode="y" glyph-name="y" horiz-adv-x="267" d="M135 -15T130 -11T124 -4Q133 20 133 171Q133 200 130 254L125 325L119 338L122 350Q116 364 104 397T80 464Q44 559 33 601Q27 621 24 638L38 649Q48 647 67 585Q82 541 94 498L106 460Q124 398 132 396L136
414L134 419Q142 429 154 490Q167 560 179 608Q192 664 205 664Q210 664 214 661T218 654Q218 639 188 536Q173 487 163 444Q151 393 151 353Q156 343 156 336Q156 331 153 322Q150 313 150 307Q150 302 154 262Q158 235 158 216Q158 172 159 137V57V53Q159 -15
138 -15Q135 -15 130 -11Z" />
<glyph unicode="z" glyph-name="z" horiz-adv-x="256" d="M39 -2T39 13Q39 25 49 65L58 99Q72 147 73 155Q80 177 92 237Q105 299 111 325T139 414Q163 493 175 544T187 636Q172 636 140 633Q109 630 93 630Q87 630 83 635T79 646Q79 655 115 659Q151 662 190
662Q197 662 202 661T211 657Q215 651 215 646Q215 611 190 537Q166 461 166 447Q163 431 143 360L136 336Q73 129 72 31Q79 29 101 29Q113 29 122 31Q131 32 143 32Q172 32 172 19Q172 6 149 6Q133 6 120 7L90 9Q79 9 68 3Q56 -2 54 -2Q39 -2 39 13Z" />
<glyph unicode="{" glyph-name="braceleft" horiz-adv-x="235" d="M119 -25T102 6T84 92L86 145Q87 166 87 197Q87 213 89 265Q91 290 91 315Q91 358 63 361Q59 362 59 371Q59 378 66 379Q78 379 84 392T91 426L88 518Q84 585 84 637Q84 692 101 723T148 754Q160
754 173 749T187 737Q187 727 178 727Q177 726 170 726L163 728Q155 730 150 730Q115 730 115 633V510Q115 488 116 471L118 433Q118 407 113 393T91 370Q107 362 112 348T118 308L116 258Q115 235 115 205V96Q115 -1 150 -1Q167 -1 176 -2Q187 -5 187 -14Q187
-25 148 -25Q119 -25 102 6Z" />
<glyph unicode="|" glyph-name="bar" horiz-adv-x="152" d="M47 -43T46 -42T44 -35Q44 10 50 98Q56 185 56 230Q56 301 64 477Q72 653 72 726Q72 736 73 743Q76 752 82 756Q86 758 92 758Q98 758 98 747Q98 654 89 465Q79 253 79 181Q79 70 76 25V1L73 -33Q73
-43 56 -43Q47 -43 46 -42Z" />
<glyph unicode="}" glyph-name="braceright" horiz-adv-x="235" d="M74 -25T62 -21T49 -11Q49 0 65 0H72Q76 -1 85 -1Q121 -1 121 96V219L119 258Q118 275 118 296Q118 323 123 336T144 359Q128 367 123 380T118 421Q118 449 119 472L121 524V633Q121 730 85 730H70Q49
730 49 740Q49 746 61 750T87 754Q116 754 133 723T151 637L149 585Q148 563 148 532Q148 516 146 464L144 414Q144 371 173 368Q177 366 177 358Q177 352 169 350Q157 350 151 337T144 303L147 211Q151 143 151 92Q151 37 134 6T87 -25Q74 -25 62 -21Z" />
<glyph unicode="~" glyph-name="asciitilde" horiz-adv-x="391" d="M229 499T211 509T182 530Q174 537 156 558Q152 562 145 562Q133 562 123 553T112 534Q112 530 115 524Q117 516 117 513Q107 500 97 500Q87 500 87 515Q87 547 103 566T148 586Q169 586 193
556Q203 543 214 534T233 525Q239 525 241 526L248 524Q251 531 262 538Q271 543 271 561L269 571L265 580Q268 586 275 586Q286 586 292 576T298 552Q298 531 282 515T245 499Q229 499 211 509Z" />
<glyph unicode="&#xa0;" glyph-name="uni00A0" horiz-adv-x="171" />
<glyph unicode="&#xa1;" glyph-name="exclamdown" horiz-adv-x="273" d="M131 693T121 703T111 724Q119 740 127 745Q132 749 140 751Q144 751 146 756Q171 755 171 730Q171 714 163 704T141 693Q131 693 121 703ZM154 -13T144 -5T134 14Q134 45 138 92Q141 143
141 171Q141 218 140 256Q139 294 139 342V582V584L140 586H153L150 581Q158 560 158 522Q158 509 157 499V478Q157 390 167 239Q178 72 178 0Q178 -13 165 -13Q154 -13 144 -5Z" />
<glyph unicode="&#xa2;" glyph-name="cent" horiz-adv-x="302" d="M179 5T176 7T173 12L171 11Q169 48 169 99V161Q165 162 150 168T117 185Q102 193 93 201T77 222Q68 236 67 250Q54 306 54 411Q54 563 134 607Q134 617 131 638L129 669Q129 701 142 701L148
697Q147 691 147 671Q147 635 152 605L173 598Q189 593 203 588T229 574Q241 565 241 554Q241 551 238 546T232 541Q224 541 215 553Q213 556 210 562T202 570T190 575Q177 578 174 583H156L155 585Q155 522 170 397Q185 274 185 210Q185 206 184 203V196Q184 188
192 180Q220 180 238 193T277 239Q288 239 288 221Q288 208 272 194T233 169T196 159H187V133Q186 122 186 108L188 61L189 13Q189 5 183 5Q179 5 176 7ZM162 196Q162 259 146 425Q140 524 130 567Q118 565 108 546T91 505T87 477Q79 405 79 385V381Q79 194 158
194L162 196Z" />
<glyph unicode="&#xa3;" glyph-name="sterling" horiz-adv-x="343" d="M47 16T47 24Q47 39 85 56Q103 64 105 66Q122 78 131 113T140 185Q140 221 132 261T107 357L97 392L85 434H83L81 433Q75 433 71 437T66 447Q66 461 79 461Q79 484 73 532Q67 579 67 603Q67
641 70 668Q72 702 84 734Q90 751 99 760T123 777Q136 784 154 784Q176 784 194 765T221 721Q229 697 229 683L219 673Q211 673 208 675T201 686L196 696Q196 721 182 742T147 763Q134 763 123 747T105 707Q92 655 92 619Q92 576 97 520T108 464Q129 464 161 471Q196
477 213 477Q219 477 223 474T228 464Q228 448 215 448Q156 448 108 439Q131 388 148 314T165 183Q165 163 162 147T149 104L137 70Q160 70 210 59Q260 48 282 48Q305 48 326 56L340 46Q340 24 293 24Q281 24 271 25L248 27L244 25Q235 31 214 35T173 42L156 44Q130
44 112 38T63 13Q47 16 47 24Z" />
<glyph unicode="&#xa4;" glyph-name="currency" horiz-adv-x="459" d="M347 107T347 126Q326 163 326 163Q282 113 207 113Q184 113 161 126T119 159Q113 159 108 147Q100 130 93 121T76 111Q65 111 61 117T56 136Q56 139 77 161Q97 184 100 193Q93 205 89 223T83
255V289Q83 380 97 459Q106 511 119 525Q119 536 95 561Q71 587 71 592Q71 603 83 603Q94 603 102 596T121 575Q129 563 135 557Q139 560 154 576Q182 604 182 604Q194 617 199 617Q229 617 254 609T307 581Q313 582 324 599Q352 649 370 649L384 634Q384 627 361
598Q338 569 338 558Q338 555 355 504Q382 419 382 378Q382 334 363 259Q363 256 358 239Q349 209 349 194Q349 172 378 139Q387 127 387 121Q387 107 374 107Q347 107 347 126ZM249 138T269 150T303 185Q330 230 339 285Q347 336 347 381Q347 419 336 472T311
534Q302 534 297 541T292 557Q282 571 262 579T221 588Q207 588 182 568T156 534L165 525Q165 512 162 508T151 504Q146 504 142 500Q134 488 125 428T115 340Q115 338 117 322Q114 309 114 286Q114 255 119 235T140 201Q140 170 164 154T225 138Q249 138 269 150Z"
/>
<glyph unicode="&#xa5;" glyph-name="yen" horiz-adv-x="449" d="M192 8T192 20Q195 26 200 80T205 150L207 225L209 264L210 299Q213 350 213 378Q213 381 211 389Q171 389 86 384Q77 388 69 403L73 416Q159 416 216 420Q218 440 218 466Q218 479 207 479Q187
479 171 477L135 475Q79 475 79 493L86 504Q107 504 125 503H164Q212 503 218 510V529Q207 534 169 603Q117 697 80 758T21 838V853L34 857Q41 857 51 847Q68 831 98 786Q102 780 107 772T120 752Q130 735 134 731Q134 724 163 681Q175 662 184 646Q196 623 209
600Q220 583 224 580Q230 572 233 572Q246 597 258 640Q262 658 287 735Q308 806 324 848Q332 870 337 877T353 884Q360 884 365 880T370 869Q350 826 324 734Q298 644 285 608Q285 592 269 558Q253 524 253 511Q265 505 278 505L332 507Q368 510 386 510Q392 510
404 489Q403 476 333 476H253L252 449Q251 437 251 422H362H372Q376 423 381 423Q402 423 402 401Q402 396 396 391T384 386H380L382 387L375 389Q370 391 364 391H253L249 389Q249 329 242 230Q234 135 234 70V57Q235 51 235 44Q235 8 212 8Q192 8 192 20Z" />
<glyph unicode="&#xa6;" glyph-name="brokenbar" horiz-adv-x="153" d="M70 419T68 420T66 427L68 535Q71 606 71 642L72 688Q72 712 72 718T73 726Q73 736 74 743Q77 752 83 756Q87 758 93 758Q99 758 99 747L97 662L94 593Q94 516 91 487V463L88 429Q88 419
78 419Q70 419 68 420ZM58 -23T56 -22T54 -15Q54 19 57 83L59 180Q59 185 59 197T60 232L61 274Q61 279 63 295Q66 306 81 306Q83 306 84 306T86 303Q87 302 87 295L84 205L82 131Q82 69 79 45V21L76 -13Q76 -17 75 -19T71 -22Q70 -23 66 -23Q58 -23 56 -22Z" />
<glyph unicode="&#xa7;" glyph-name="section" horiz-adv-x="242" d="M99 -28T86 -19T73 0Q73 8 86 8Q90 8 97 5Q103 2 107 2Q122 2 134 12T152 38Q164 68 164 93Q164 127 151 156T110 228L75 279Q61 299 53 326T44 383Q44 435 66 469Q52 503 52 536Q52 576 70
621Q80 644 96 658T131 673Q143 673 156 664T169 645Q169 637 156 637Q152 637 146 640Q138 643 135 643Q120 643 108 631T90 600Q78 563 78 532Q78 498 91 470T132 404L166 357Q180 338 189 314T198 262Q198 211 175 173Q190 140 190 109Q190 69 172 24Q162 1
146 -13T111 -28Q99 -28 86 -19ZM172 224T172 254Q172 278 163 305T141 351L110 396Q104 407 98 414L82 438Q70 408 70 371Q70 346 79 320T100 276Q113 255 130 232L159 191Q172 224 172 254Z" />
<glyph unicode="&#xa8;" glyph-name="dieresis" horiz-adv-x="449" d="M280 532T274 539T268 554Q268 563 275 571T292 579Q301 579 307 571T314 555Q314 532 288 532Q280 532 274 539ZM147 528T142 536T136 553Q136 562 143 570T160 578Q170 578 175 568T180
545Q180 537 173 533T155 528Q147 528 142 536Z" />
<glyph unicode="&#xa9;" glyph-name="copyright" horiz-adv-x="605" d="M202 1T157 30T92 112T67 246Q64 281 63 323Q61 342 59 385T56 451Q56 518 65 591Q72 638 81 675T105 748Q121 787 142 813T193 856Q221 873 260 873Q299 873 333 859T393 817Q447 761 475
682Q506 592 517 516Q528 438 528 369Q528 1 284 1Q202 1 157 30ZM369 28T418 83Q442 110 457 144T485 227L484 232Q484 242 490 260Q495 280 495 287V436Q495 459 486 501L476 549Q444 745 336 819L323 828L317 832L303 840Q299 843 295 844T289 846Q283 848 272
848Q240 848 213 833T167 792Q131 743 112 661Q97 589 93 517Q91 477 91 459Q91 412 97 343Q97 332 99 314L100 290Q104 228 110 187Q114 156 120 138T141 94Q153 72 169 59T213 37Q239 28 271 28Q369 28 418 83ZM282 122T259 131Q255 133 250 136T238 142L217
152Q178 201 168 266Q163 298 162 321T160 387V391Q160 432 162 469Q165 521 172 565Q180 614 198 655Q216 696 250 712Q267 721 296 721Q316 721 329 713T365 674Q393 637 393 623Q393 617 390 613T380 609Q363 609 345 649Q337 666 323 677T292 689Q271 689 255
676T229 641Q221 622 215 594T206 539L202 487L198 448L200 444Q196 426 196 402V384Q196 340 198 313T208 251Q216 213 230 194V191Q243 176 249 171T270 158Q283 151 299 151Q318 151 334 159T359 178Q361 180 372 192T388 204Q403 204 403 182Q403 168 386 154T345
131T304 122Q282 122 259 131Z" />
<glyph unicode="&#xaa;" glyph-name="ordfeminine" horiz-adv-x="249" d="M180 376T174 378T167 389Q163 429 161 444T158 461Q147 464 131 464L110 465L91 467Q89 467 87 464V462L86 451Q84 434 79 411Q78 404 73 388Q66 384 62 381T56 378Q53 378 49 381T45
388L46 390V392Q49 403 53 425L63 470Q66 481 69 504Q70 509 72 521T78 546Q84 567 84 583Q85 589 87 600T94 631Q100 657 104 683Q104 684 105 689T107 703Q107 708 108 718T110 735Q112 750 113 751H123H127Q134 751 137 754Q154 754 154 746Q154 717 158 685Q159
677 160 670T161 655Q163 630 169 583T178 515L195 386V385Q195 379 190 376Q180 376 174 378ZM156 481L144 620L135 713L104 564Q92 501 92 489Q92 486 113 484T150 481H156Z" />
<glyph unicode="&#xab;" glyph-name="guillemotleft" horiz-adv-x="391" d="M242 -17T236 -10Q222 8 212 28Q210 31 201 49L195 62L183 85Q138 172 121 206Q89 270 78 295Q60 334 60 341Q60 348 88 417L107 465Q117 489 127 514T149 568Q184 653 187 663V664Q206
716 215 716Q233 716 235 702Q222 682 211 655L200 627L191 603L177 565Q132 446 124 424Q97 346 91 338Q93 304 223 76Q266 2 266 -6Q266 -10 259 -13T246 -17Q242 -17 236 -10ZM323 1L316 2H314Q298 26 274 80L257 118L207 222Q207 222 197 244Q191 254 189 259T185
268Q182 276 164 302Q145 325 145 341Q145 352 168 409L220 528Q247 587 254 609Q254 612 260 628Q264 644 268 657T279 681Q285 692 292 694L305 684Q301 654 282 606T237 507Q213 459 197 414T180 342Q180 334 248 195T334 26L343 19Q342 13 338 7T329 0L323
1Z" />
<glyph unicode="&#xac;" glyph-name="logicalnot" horiz-adv-x="391" d="M273 243T267 248T261 258L259 308Q258 329 258 355Q258 358 253 360Q251 360 247 360T233 361H217Q212 361 186 359Q172 358 155 358H76L75 361Q72 370 72 375Q72 382 79 382L109 384Q128
386 145 386L191 388Q211 389 238 389Q257 389 271 391Q280 390 287 386T294 374Q294 370 292 356L290 342Q290 276 291 259Q291 251 287 247T278 243Q273 243 267 248Z" />
<glyph unicode="&#xad;" glyph-name="uni00AD" horiz-adv-x="266" d="M47 352T41 357T34 369Q34 372 96 375T205 378Q213 378 220 373T227 361Q227 358 166 355T55 352Q47 352 41 357Z" />
<glyph unicode="&#xae;" glyph-name="registered" horiz-adv-x="635" d="M256 -81T203 -47Q159 -18 128 41Q106 85 92 160Q83 208 81 288Q80 306 80 349V415Q81 444 81 481Q81 935 326 935Q364 935 404 910T470 847Q485 843 489 825Q493 806 503 797Q503 772 530
625Q541 562 545 523T550 449V417Q550 396 548 308L547 279Q546 233 541 198T527 116Q512 34 474 -6Q435 -46 403 -63T328 -81Q256 -81 203 -47ZM358 -52T405 -21Q448 8 473 61Q495 105 506 170Q514 217 516 289Q517 305 517 345Q517 632 457 806L464 814Q455 839
436 845Q417 866 405 876T374 896Q351 906 333 906Q295 906 262 892T207 853Q185 829 168 795T141 725Q122 660 116 576Q114 532 114 509Q114 474 117 405Q121 342 121 301Q121 88 185 6Q198 -12 220 -22Q242 -36 248 -41Q267 -48 281 -48L290 -52Q358 -52 405
-21ZM250 82T243 87T236 102Q236 173 232 231Q229 255 225 278Q219 311 219 330V525Q219 556 213 617Q207 665 207 710Q207 736 212 751T230 774Q242 782 257 784T301 787Q346 787 370 760Q394 732 399 696Q405 654 405 620Q405 588 398 564T380 525Q369 511 360
504Q351 496 344 488T336 473Q336 463 358 382L404 221Q426 142 428 142V141L432 128Q436 119 439 108Q443 100 443 97Q443 89 424 82Q414 82 404 98Q390 121 373 188L362 236Q360 244 355 266Q350 279 342 312L335 340L314 425Q305 459 300 459Q293 459 279 453Q268
446 257 446L254 407V389Q254 345 265 246Q276 147 276 103Q276 93 273 87Q270 82 260 82Q250 82 243 87ZM277 476T315 507T359 555Q368 582 368 621Q368 646 366 667Q363 695 356 717Q348 739 328 750Q316 756 304 756Q277 756 265 751T248 733T244 691Q244 651
247 570Q248 537 252 503Q255 476 261 476Q277 476 315 507Z" />
<glyph unicode="&#xaf;" glyph-name="overscore" horiz-adv-x="352" d="M104 539T97 541Q82 543 78 548Q76 552 76 555Q76 563 140 563H196Q231 563 247 561Q259 560 264 557T269 547Q267 539 205 539H148H129Q104 539 97 541Z" />
<glyph unicode="&#xb0;" glyph-name="degree" horiz-adv-x="262" d="M105 471T86 484T56 517T44 553Q44 614 77 652Q95 673 120 673Q161 673 189 646T218 581Q218 471 125 471Q105 471 86 484ZM148 490T163 498T186 522Q199 549 199 573Q199 606 178 628T123 650Q106
650 92 634T72 593Q66 571 66 548Q66 528 84 509T127 490Q148 490 163 498Z" />
<glyph unicode="&#xb1;" glyph-name="plusminus" horiz-adv-x="391" d="M184 174T177 178T169 188V219Q169 233 170 245L171 271Q171 281 171 286T167 297Q164 302 158 303T137 304L115 302Q100 299 93 299Q64 299 64 320Q64 328 66 331T75 334L102 333L128 331Q169
331 169 339L167 389Q164 422 164 439Q164 451 168 456T184 461Q202 461 202 444L198 434L200 395Q202 377 202 355Q202 341 208 336T230 331L260 333L290 334Q321 334 321 316Q321 300 304 300Q288 300 274 302Q261 303 243 303H238Q215 303 209 298T202 270Q202
255 207 228Q211 194 211 190Q211 183 205 179T190 174Q184 174 177 178ZM99 106T93 111T86 123Q86 126 150 129T257 132Q265 132 272 127T279 115Q279 112 216 109T107 106Q99 106 93 111Z" />
<glyph unicode="&#xb2;" glyph-name="uni00B2" horiz-adv-x="273" d="M76 340T72 343T68 351Q90 411 98 426Q132 500 147 558T162 683Q162 759 127 759Q120 755 115 747T109 730Q108 723 100 717T88 714Q81 718 81 720V726Q81 749 93 765Q96 769 106 771T122 774Q155
774 171 758T189 714L188 713L189 693Q190 684 190 673Q190 628 178 566T148 466Q136 436 132 429L119 402L106 371Q105 369 105 365Q105 362 108 362Q121 365 132 366T160 368Q168 368 168 360Q168 345 163 345Q151 345 124 342Q105 340 82 340Q76 340 72 343Z"
/>
<glyph unicode="&#xb3;" glyph-name="uni00B3" horiz-adv-x="252" d="M103 333T91 345T79 367L83 369Q90 369 100 361L107 356Q129 356 139 368T149 415Q149 453 146 477Q143 508 129 537Q123 553 111 563H109H106Q99 563 95 565V567L93 570Q93 572 99 578Q101
581 109 590T123 614Q128 629 128 641Q128 665 125 685Q122 714 109 730Q106 733 103 733Q101 733 99 732T93 731Q85 731 79 727T69 716Q61 696 56 700Q40 712 39 717Q57 752 94 752Q102 752 116 748T134 739L136 738Q158 705 158 633V626Q158 610 153 602Q150
599 148 594T144 586Q142 584 140 582T135 578T125 575Q137 571 146 562T160 542Q166 524 171 494Q171 490 175 472Q178 461 178 454T179 434Q179 414 177 398Q176 383 168 362Q164 351 149 345T132 337Q120 333 113 333Q103 333 91 345Z" />
<glyph unicode="&#xb4;" glyph-name="acute" horiz-adv-x="303" d="M102 542T97 546T91 556Q91 559 119 582L151 608L178 629Q212 655 215 658Q237 658 237 643L234 627Q182 603 109 542Q102 542 97 546Z" />
<glyph unicode="&#xb5;" glyph-name="uni00B5" horiz-adv-x="366" d="M161 -15T143 -5T112 20Q98 38 90 121T80 311Q80 335 79 347Q77 598 71 644L77 658Q100 655 100 603L103 338Q103 310 108 232Q114 162 114 126Q114 12 189 12Q235 12 248 222L249 242Q256
517 256 649L255 658Q254 662 254 667Q254 678 271 678Q283 678 286 672Q288 662 288 637Q288 561 282 535L283 529Q283 516 280 489L278 449V439Q279 435 279 429Q277 405 277 383Q276 376 276 361Q274 266 272 196Q269 109 248 49Q226 -15 177 -15Q161 -15 143
-5ZM301 115T300 116T298 123Q298 168 304 256Q310 343 310 388Q310 459 318 635Q326 811 326 884Q326 894 327 901Q330 910 336 914Q340 916 346 916Q352 916 352 905Q352 812 343 623Q333 411 333 339Q333 228 330 183V159L327 125Q327 115 310 115Q301 115 300
116Z" />
<glyph unicode="&#xb6;" glyph-name="paragraph" horiz-adv-x="452" d="M320 1T320 50Q320 156 324 312Q329 507 329 574Q329 619 325 683Q322 755 322 792V809Q323 815 323 824Q323 850 313 862T277 875Q266 875 266 824Q266 767 272 651Q279 543 279 478Q279
427 277 353Q276 345 276 331L273 271Q272 220 269 181Q267 148 264 102T260 28L262 22Q262 16 256 12T243 7Q224 7 224 27Q224 108 234 249Q245 403 245 470L244 509Q243 526 243 547H159Q144 553 123 559Q84 570 61 583Q31 601 21 647Q21 647 19 662Q19 672 15
678Q15 756 45 811Q61 840 79 852T129 873Q157 880 164 883Q187 892 223 892Q253 894 250 894Q257 904 274 904Q277 904 293 900Q305 896 313 896Q331 896 336 898Q343 892 356 890Q377 887 385 884T394 874Q394 860 374 860Q362 860 354 862L356 760L358 709Q362
620 362 557Q362 486 359 343Q355 216 355 129Q355 106 359 73Q362 36 362 17Q362 10 357 6T345 1Q320 1 320 50ZM232 572T237 576T243 592Q243 623 238 710Q234 779 234 828V842L235 856Q226 865 183 865Q147 865 115 843T65 784T46 710Q46 629 93 599Q117 584
145 578T214 572Q232 572 237 576Z" />
<glyph unicode="&#xb7;" glyph-name="middot" horiz-adv-x="147" d="M62 340T56 347T49 364Q49 374 57 382T75 391Q83 391 91 383T99 365Q99 340 71 340Q62 340 56 347Z" />
<glyph unicode="&#xb8;" glyph-name="cedilla" horiz-adv-x="303" d="M139 -219T126 -212T112 -192Q112 -182 123 -182Q127 -182 139 -187Q151 -192 155 -192Q172 -192 183 -172T194 -123Q194 -90 179 -78L166 -80L152 -82Q137 -82 125 -62Q133 -41 133 -4V7L162
11Q158 -19 158 -40Q231 -44 231 -140Q231 -156 221 -174T192 -206T155 -219Q139 -219 126 -212Z" />
<glyph unicode="&#xb9;" glyph-name="uni00B9" horiz-adv-x="254" d="M63 333T61 339T59 353Q59 354 60 355T63 357H79H95Q104 357 106 359T109 368Q109 461 96 672Q96 673 96 677T97 690V708Q97 721 93 724T71 727L65 726H59Q54 726 52 730T49 739Q49 746 61
746Q68 747 104 747Q109 747 117 744T125 738V721V668L127 616Q127 601 131 538Q134 477 134 438V431L136 400L137 368V363L136 359L138 358H151Q157 359 164 359Q181 359 181 352Q181 347 178 342T168 336L124 335L67 333Q63 333 61 339Z" />
<glyph unicode="&#xba;" glyph-name="ordmasculine" horiz-adv-x="259" d="M84 375T67 425T49 580V599Q49 679 60 716T99 754Q100 754 106 752Q131 745 141 745Q153 744 160 739T172 723Q183 703 189 671T195 603L194 601Q194 582 195 567V534Q195 506 193 483Q190
445 183 424Q173 394 155 382Q151 379 141 377T124 375Q84 375 67 425ZM144 394T154 422Q165 456 167 485Q168 510 168 539L166 604L164 625L162 670L160 674L161 677Q161 701 148 717T115 733Q101 733 94 729T84 712L82 688Q82 679 82 661T79 632L77 606Q76 595
76 580V558Q77 548 77 536Q77 514 82 476Q86 434 102 407Q109 394 122 394Q144 394 154 422Z" />
<glyph unicode="&#xbb;" glyph-name="guillemotright" horiz-adv-x="391" d="M140 -17T133 -14T125 -6Q125 -1 168 76Q220 166 259 242T300 338Q294 346 267 424Q259 446 214 565L200 603L191 627Q177 663 170 678Q166 688 156 702Q158 716 176 716Q185 716 204
664V663L242 568Q254 540 264 515T284 465L303 417Q331 348 331 341Q331 334 313 295Q279 220 226 120Q204 76 196 62L179 28Q166 3 155 -10Q149 -17 146 -17Q140 -17 133 -14ZM59 0T55 6T48 19L57 26Q77 61 144 197T211 342Q211 368 195 414T155 507Q131 554 111
604T86 684L99 694Q105 693 112 682T124 657Q129 638 132 629L137 609Q144 587 171 528Q180 509 213 432L223 409Q246 352 246 341Q246 326 228 302Q208 273 206 268Q202 257 194 243L184 222L98 44L77 2L69 1L63 0Q59 0 55 6Z" />
<glyph unicode="&#xbc;" glyph-name="onequarter" horiz-adv-x="620" d="M184 3T184 15Q184 36 189 62T205 133L219 189Q283 473 344 707L346 713Q347 719 349 725T352 735L357 745Q359 748 361 748Q376 748 376 735Q376 734 371 711L361 668L356 643L318 475L243
146L223 59Q222 56 220 45Q218 37 212 14Q206 -1 193 -3Q184 3 184 15ZM63 333T61 339T59 353Q59 354 60 355T63 357H79H95Q104 357 106 359T109 368Q109 461 96 672Q96 673 96 677T97 690V708Q97 721 93 724T71 727L65 726H59Q54 726 52 730T49 739Q49 746 61
746Q68 747 104 747Q109 747 117 744T125 738V721V668L127 616Q127 601 131 538Q134 477 134 438V431L136 400L137 368V363L136 359L138 358H151Q157 359 164 359Q181 359 181 352Q181 347 178 342T168 336L124 335L67 333Q63 333 61 339ZM507 -9V11L506 13Q509
22 509 32L507 61Q504 79 504 89Q504 96 505 102L506 114Q506 135 500 138Q499 138 491 138T445 137Q439 137 435 136T428 135L423 136Q418 136 412 136T404 138Q401 141 400 141V143L403 161L398 172Q398 179 400 185Q403 194 403 199Q403 217 406 253Q408 277
408 308V396Q408 400 407 403Q406 406 406 410Q406 414 409 415T426 417Q436 417 436 410Q436 397 435 387Q434 377 434 365Q434 354 436 346L434 345L436 329Q436 306 433 259Q429 218 429 198Q429 193 431 190L433 182L431 174Q429 171 429 167Q429 156 434 156Q447
156 472 158T501 161L502 200Q502 232 498 272Q497 275 497 280T495 294L493 317Q493 320 496 321T503 323L521 317L523 278Q524 261 524 239Q524 218 526 191T530 161Q536 161 540 162Q548 164 551 164Q556 164 558 161T561 148Q561 140 546 142H544Q530 142 530
130Q530 108 532 74T535 36V26Q535 19 537 13L535 6L537 2V-5L528 -12L507 -9Z" />
<glyph unicode="&#xbd;" glyph-name="onehalf" horiz-adv-x="586" d="M63 333T61 339T59 353Q59 354 60 355T63 357H79H95Q104 357 106 359T109 368Q109 461 96 672Q96 673 96 677T97 690V708Q97 721 93 724T71 727L65 726H59Q54 726 52 730T49 739Q49 746 61
746Q68 747 104 747Q109 747 117 744T125 738V721V668L127 616Q127 601 131 538Q134 477 134 438V431L136 400L137 368V363L136 359L138 358H151Q157 359 164 359Q181 359 181 352Q181 347 178 342T168 336L124 335L67 333Q63 333 61 339ZM191 3T191 15Q191 36
196 62T212 133L226 189Q290 473 351 707L353 713Q354 719 356 725T359 735L364 745Q366 748 368 748Q383 748 383 735Q383 734 378 711L368 668L363 643L325 475L250 146L230 59Q229 56 227 45Q225 37 219 14Q213 -1 200 -3Q191 3 191 15ZM418 -4T414 -1T410 7Q432
67 440 82Q474 156 489 214T504 339Q504 415 469 415Q462 411 457 403T451 386Q450 379 442 373T430 370Q423 374 423 376V382Q423 405 435 421Q438 425 448 427T464 430Q497 430 513 414T531 370L530 369L531 349Q532 340 532 329Q532 284 520 222T490 122Q478
92 474 85L461 58L448 27Q447 25 447 21Q447 18 450 18Q463 21 474 22T502 24Q510 24 510 16Q510 1 505 1Q493 1 466 -2Q447 -4 424 -4Q418 -4 414 -1Z" />
<glyph unicode="&#xbe;" glyph-name="threequarters" horiz-adv-x="620" d="M103 333T91 345T79 367L83 369Q90 369 100 361L107 356Q129 356 139 368T149 415Q149 453 146 477Q143 508 129 537Q123 553 111 563H109H106Q99 563 95 565V567L93 570Q93 572 99 578Q101
581 109 590T123 614Q128 629 128 641Q128 665 125 685Q122 714 109 730Q106 733 103 733Q101 733 99 732T93 731Q85 731 79 727T69 716Q61 696 56 700Q40 712 39 717Q57 752 94 752Q102 752 116 748T134 739L136 738Q158 705 158 633V626Q158 610 153 602Q150
599 148 594T144 586Q142 584 140 582T135 578T125 575Q137 571 146 562T160 542Q166 524 171 494Q171 490 175 472Q178 461 178 454T179 434Q179 414 177 398Q176 383 168 362Q164 351 149 345T132 337Q120 333 113 333Q103 333 91 345ZM193 3T193 15Q193 36 198
62T214 133L228 189Q292 473 353 707L355 713Q356 719 358 725T361 735L366 745Q368 748 370 748Q385 748 385 735Q385 734 380 711L370 668L365 643L327 475L252 146L232 59Q231 56 229 45Q227 37 221 14Q215 -1 202 -3Q193 3 193 15ZM507 -9V11L506 13Q509 22
509 32L507 61Q504 79 504 89Q504 96 505 102L506 114Q506 135 500 138Q499 138 491 138T445 137Q439 137 435 136T428 135L423 136Q418 136 412 136T404 138Q401 141 400 141V143L403 161L398 172Q398 179 400 185Q403 194 403 199Q403 217 406 253Q408 277 408
308V396Q408 400 407 403Q406 406 406 410Q406 414 409 415T426 417Q436 417 436 410Q436 397 435 387Q434 377 434 365Q434 354 436 346L434 345L436 329Q436 306 433 259Q429 218 429 198Q429 193 431 190L433 182L431 174Q429 171 429 167Q429 156 434 156Q447
156 472 158T501 161L502 200Q502 232 498 272Q497 275 497 280T495 294L493 317Q493 320 496 321T503 323L521 317L523 278Q524 261 524 239Q524 218 526 191T530 161Q536 161 540 162Q548 164 551 164Q556 164 558 161T561 148Q561 140 546 142H544Q530 142 530
130Q530 108 532 74T535 36V26Q535 19 537 13L535 6L537 2V-5L528 -12L507 -9Z" />
<glyph unicode="&#xbf;" glyph-name="questiondown" horiz-adv-x="241" d="M121 629T114 637T106 655Q106 680 134 680Q143 680 149 673T156 656Q156 646 148 638T130 629Q121 629 114 637ZM91 -95T80 -73Q70 -53 65 -22T59 39Q59 128 91 238Q104 284 113 355T123
501L122 558Q122 556 124 558Q127 561 134 561Q144 561 145 549Q145 396 126 276Q121 245 110 203Q97 149 91 111T85 40Q85 14 87 -5T97 -47Q106 -73 121 -73H132Q167 -73 167 -11Q167 7 160 49Q170 54 177 54Q184 54 185 49Q192 5 192 -13Q192 -43 180 -67Q165
-95 134 -95Q91 -95 80 -73Z" />
<glyph unicode="&#xc0;" glyph-name="Agrave" horiz-adv-x="353" d="M255 0T250 5T244 17V148Q244 160 193 170T109 180Q107 180 103 165T96 143Q83 91 70 32L65 10Q63 2 55 2Q47 2 41 7T34 19L35 21V22L46 72Q58 119 67 164Q77 215 82 230Q90 263 114 395L120
428Q146 582 156 622Q161 646 174 693Q179 713 188 733Q197 750 203 750Q219 750 226 740Q231 731 241 641T260 459L273 293Q273 250 279 163Q285 75 285 32V28Q285 17 282 8Q278 0 263 0Q255 0 250 5ZM243 193T243 203Q243 265 236 372T221 562Q219 597 213 639L209
678Q209 677 207 689L205 701Q197 679 190 640T174 548Q150 399 133 324L124 290Q109 240 109 214V208Q153 194 210 194H216Q219 193 223 193Q243 193 243 203ZM248 781T217 798T169 826L153 827Q123 833 123 850Q123 867 133 874L139 872Q169 868 175 855Q175
854 187 849L223 827Q245 813 260 801Q276 788 276 780Q276 773 263 773Q248 781 217 798Z" />
<glyph unicode="&#xc1;" glyph-name="Aacute" horiz-adv-x="353" d="M255 0T250 5T244 17V148Q244 160 193 170T109 180Q107 180 103 165T96 143Q83 91 70 32L65 10Q63 2 55 2Q47 2 41 7T34 19L35 21V22L46 72Q58 119 67 164Q77 215 82 230Q90 263 114 395L120
428Q146 582 156 622Q161 646 174 693Q179 713 188 733Q197 750 203 750Q219 750 226 740Q231 731 241 641T260 459L273 293Q273 250 279 163Q285 75 285 32V28Q285 17 282 8Q278 0 263 0Q255 0 250 5ZM243 193T243 203Q243 265 236 372T221 562Q219 597 213 639L209
678Q209 677 207 689L205 701Q197 679 190 640T174 548Q150 399 133 324L124 290Q109 240 109 214V208Q153 194 210 194H216Q219 193 223 193Q243 193 243 203ZM217 801T212 805T206 815Q206 818 234 841L266 867L293 888Q327 914 330 917Q352 917 352 902L349
886Q297 862 224 801Q217 801 212 805Z" />
<glyph unicode="&#xc2;" glyph-name="Acircumflex" horiz-adv-x="353" d="M255 0T250 5T244 17V148Q244 160 193 170T109 180Q107 180 103 165T96 143Q83 91 70 32L65 10Q63 2 55 2Q47 2 41 7T34 19L35 21V22L46 72Q58 119 67 164Q77 215 82 230Q90 263 114 395L120
428Q146 582 156 622Q161 646 174 693Q179 713 188 733Q197 750 203 750Q219 750 226 740Q231 731 241 641T260 459L273 293Q273 250 279 163Q285 75 285 32V28Q285 17 282 8Q278 0 263 0Q255 0 250 5ZM243 193T243 203Q243 265 236 372T221 562Q219 597 213 639L209
678Q209 677 207 689L205 701Q197 679 190 640T174 548Q150 399 133 324L124 290Q109 240 109 214V208Q153 194 210 194H216Q219 193 223 193Q243 193 243 203ZM258 780Q253 844 230 930Q226 924 196 834Q188 808 188 800L171 777L152 790Q153 805 170 847T207
924T236 959Q251 959 251 938Q251 905 269 857L280 821L279 815L287 800L286 795Q287 791 288 789T290 784Q290 775 272 772L258 780Z" />
<glyph unicode="&#xc3;" glyph-name="Atilde" horiz-adv-x="353" d="M255 0T250 5T244 17V148Q244 160 193 170T109 180Q107 180 103 165T96 143Q83 91 70 32L65 10Q63 2 55 2Q47 2 41 7T34 19L35 21V22L46 72Q58 119 67 164Q77 215 82 230Q90 263 114 395L120
428Q146 582 156 622Q161 646 174 693Q179 713 188 733Q197 750 203 750Q219 750 226 740Q231 731 241 641T260 459L273 293Q273 250 279 163Q285 75 285 32V28Q285 17 282 8Q278 0 263 0Q255 0 250 5ZM243 193T243 203Q243 265 236 372T221 562Q219 597 213 639L209
678Q209 677 207 689L205 701Q197 679 190 640T174 548Q150 399 133 324L124 290Q109 240 109 214V208Q153 194 210 194H216Q219 193 223 193Q243 193 243 203ZM133 785T127 790T120 802Q120 833 137 852T179 871Q204 871 221 851Q229 836 246 824T278 812Q304
812 304 848L302 858L298 867Q301 873 308 873Q319 873 325 863T331 839Q331 818 315 802T278 786Q262 786 244 796T215 817Q207 824 189 845L182 848Q167 848 156 840T145 821L150 800L139 785Q133 785 127 790Z" />
<glyph unicode="&#xc4;" glyph-name="Adieresis" horiz-adv-x="353" d="M255 0T250 5T244 17V148Q244 160 193 170T109 180Q107 180 103 165T96 143Q83 91 70 32L65 10Q63 2 55 2Q47 2 41 7T34 19L35 21V22L46 72Q58 119 67 164Q77 215 82 230Q90 263 114 395L120
428Q146 582 156 622Q161 646 174 693Q179 713 188 733Q197 750 203 750Q219 750 226 740Q231 731 241 641T260 459L273 293Q273 250 279 163Q285 75 285 32V28Q285 17 282 8Q278 0 263 0Q255 0 250 5ZM243 193T243 203Q243 265 236 372T221 562Q219 597 213 639L209
678Q209 677 207 689L205 701Q197 679 190 640T174 548Q150 399 133 324L124 290Q109 240 109 214V208Q153 194 210 194H216Q219 193 223 193Q243 193 243 203ZM283 809T277 816T271 831Q271 840 278 848T295 856Q304 856 310 848T317 832Q317 809 291 809Q283
809 277 816ZM150 805T145 813T139 830Q139 839 146 847T163 855Q173 855 178 845T183 822Q183 814 176 810T158 805Q150 805 145 813Z" />
<glyph unicode="&#xc5;" glyph-name="Aring" horiz-adv-x="353" d="M255 0T250 5T244 17V148Q244 160 193 170T109 180Q107 180 103 165T96 143Q83 91 70 32L65 10Q63 2 55 2Q47 2 41 7T34 19L35 21V22L46 72Q58 119 67 164Q77 215 82 230Q90 263 114 395L120
428Q146 582 156 622Q161 646 174 693Q179 713 188 733Q197 750 203 750Q219 750 226 740Q231 731 241 641T260 459L273 293Q273 250 279 163Q285 75 285 32V28Q285 17 282 8Q278 0 263 0Q255 0 250 5ZM243 193T243 203Q243 265 236 372T221 562Q219 597 213 639L209
678Q209 677 207 689L205 701Q197 679 190 640T174 548Q150 399 133 324L124 290Q109 240 109 214V208Q153 194 210 194H216Q219 193 223 193Q243 193 243 203ZM199 784T184 800T169 837Q169 860 187 879T227 899Q246 899 264 880T282 841Q282 814 265 799T218
784Q199 784 184 800ZM227 803T241 811T256 831Q256 851 249 865T227 880Q215 880 204 868T192 842Q192 822 200 811Q205 803 214 803Q227 803 241 811Z" />
<glyph unicode="&#xc6;" glyph-name="AE" horiz-adv-x="408" d="M222 -6Q230 43 230 112L228 208L226 303L220 310L189 307Q166 306 140 302Q118 297 117 293L67 102Q65 93 60 65T48 21Q40 1 32 1Q29 1 27 5T24 13Q25 56 64 211Q125 452 195 680Q208 725 219 740Q230
754 241 754L279 756Q305 759 318 759Q350 759 350 743L343 731Q295 731 245 725Q245 701 248 651Q251 602 251 576Q251 511 250 459Q249 408 249 343L253 337Q265 337 293 342Q314 347 333 347L346 330Q346 313 275 313H249Q249 247 250 194Q252 142 252 75V55Q251
45 251 34Q251 17 260 17Q275 17 317 22Q355 28 374 28Q382 28 389 25T396 15Q396 4 366 1Q326 -3 301 -3Q264 -5 259 -7Q259 -7 250 -14Q243 -20 236 -20L222 -6ZM188 327T225 336L227 441L229 563Q229 634 222 680Q213 670 170 510T125 324Q188 327 225 336Z"
/>
<glyph unicode="&#xc7;" glyph-name="Ccedilla" horiz-adv-x="330" d="M174 -16T143 6T99 56Q87 82 75 221T62 428V481Q61 504 61 532Q61 584 67 635Q71 660 77 678T96 713Q118 747 162 758Q185 764 213 764Q232 764 251 753T271 727Q271 716 255 716Q249 716
232 723Q217 730 205 730Q177 730 155 719T119 688Q108 672 100 644T90 588Q87 563 87 528L88 472Q89 448 89 420Q89 351 103 217T130 62Q142 43 165 33T215 23Q261 23 285 52Q294 64 304 64Q313 64 313 50Q313 32 302 19T272 -2Q240 -16 202 -16Q174 -16 143 6ZM191
-219T178 -212T164 -192Q164 -182 175 -182Q179 -182 191 -187Q203 -192 207 -192Q224 -192 235 -172T246 -123Q246 -90 231 -78L218 -80L204 -82Q189 -82 177 -62Q185 -41 185 -4V7L214 11Q210 -19 210 -40Q283 -44 283 -140Q283 -156 273 -174T244 -206T207 -219Q191
-219 178 -212Z" />
<glyph unicode="&#xc8;" glyph-name="Egrave" horiz-adv-x="249" d="M90 -6T81 -2T71 16V35Q70 43 70 53V55L71 201L70 614Q70 678 68 725Q68 737 73 745T86 753H148Q162 753 169 751Q179 748 179 734Q179 726 173 721T160 715H143L127 716L111 717Q104 717 102
715T99 705Q99 658 100 620V535V410Q100 408 102 408H103H104Q129 410 158 410Q174 410 174 396Q174 386 171 383T159 379H102Q98 379 98 374L100 226Q102 157 102 67V30H145H187H196Q214 30 214 17Q214 1 205 -2Q193 -6 156 -6H114Q90 -6 81 -2ZM147 781T116 798T68
826L52 827Q22 833 22 850Q22 867 32 874L38 872Q68 868 74 855Q74 854 86 849L122 827Q144 813 159 801Q175 788 175 780Q175 773 162 773Q147 781 116 798Z" />
<glyph unicode="&#xc9;" glyph-name="Eacute" horiz-adv-x="249" d="M90 -6T81 -2T71 16V35Q70 43 70 53V55L71 201L70 614Q70 678 68 725Q68 737 73 745T86 753H148Q162 753 169 751Q179 748 179 734Q179 726 173 721T160 715H143L127 716L111 717Q104 717 102
715T99 705Q99 658 100 620V535V410Q100 408 102 408H103H104Q129 410 158 410Q174 410 174 396Q174 386 171 383T159 379H102Q98 379 98 374L100 226Q102 157 102 67V30H145H187H196Q214 30 214 17Q214 1 205 -2Q193 -6 156 -6H114Q90 -6 81 -2ZM116 801T111 805T105
815Q105 818 133 841L165 867L192 888Q226 914 229 917Q251 917 251 902L248 886Q196 862 123 801Q116 801 111 805Z" />
<glyph unicode="&#xca;" glyph-name="Ecircumflex" horiz-adv-x="249" d="M90 -6T81 -2T71 16V35Q70 43 70 53V55L71 201L70 614Q70 678 68 725Q68 737 73 745T86 753H148Q162 753 169 751Q179 748 179 734Q179 726 173 721T160 715H143L127 716L111 717Q104 717
102 715T99 705Q99 658 100 620V535V410Q100 408 102 408H103H104Q129 410 158 410Q174 410 174 396Q174 386 171 383T159 379H102Q98 379 98 374L100 226Q102 157 102 67V30H145H187H196Q214 30 214 17Q214 1 205 -2Q193 -6 156 -6H114Q90 -6 81 -2ZM157 780Q152
844 129 930Q125 924 95 834Q87 808 87 800L70 777L51 790Q52 805 69 847T106 924T135 959Q150 959 150 938Q150 905 168 857L179 821L178 815L186 800L185 795Q186 791 187 789T189 784Q189 775 171 772L157 780Z" />
<glyph unicode="&#xcb;" glyph-name="Edieresis" horiz-adv-x="249" d="M90 -6T81 -2T71 16V35Q70 43 70 53V55L71 201L70 614Q70 678 68 725Q68 737 73 745T86 753H148Q162 753 169 751Q179 748 179 734Q179 726 173 721T160 715H143L127 716L111 717Q104 717
102 715T99 705Q99 658 100 620V535V410Q100 408 102 408H103H104Q129 410 158 410Q174 410 174 396Q174 386 171 383T159 379H102Q98 379 98 374L100 226Q102 157 102 67V30H145H187H196Q214 30 214 17Q214 1 205 -2Q193 -6 156 -6H114Q90 -6 81 -2ZM182 809T176
816T170 831Q170 840 177 848T194 856Q203 856 209 848T216 832Q216 809 190 809Q182 809 176 816ZM49 805T44 813T38 830Q38 839 45 847T62 855Q72 855 77 845T82 822Q82 814 75 810T57 805Q49 805 44 813Z" />
<glyph unicode="&#xcc;" glyph-name="Igrave" horiz-adv-x="270" d="M119 5T82 5Q75 5 70 10T64 21Q64 34 81 34H120Q120 149 113 324Q109 464 105 544L106 595V661Q106 711 104 725H69Q59 725 59 739Q59 748 67 753Q74 756 104 756H132Q147 755 170 755Q178 755
183 752T188 741Q188 735 185 730T176 725Q169 725 164 726H152H142Q132 726 130 724L128 720Q128 642 141 405Q153 186 153 90V62Q152 49 152 35H188Q211 35 211 21Q211 15 207 10T197 4H143Q119 5 82 5ZM157 781T126 798T78 826L62 827Q32 833 32 850Q32 867
42 874L48 872Q78 868 84 855Q84 854 96 849L132 827Q154 813 169 801Q185 788 185 780Q185 773 172 773Q157 781 126 798Z" />
<glyph unicode="&#xcd;" glyph-name="Iacute" horiz-adv-x="270" d="M119 5T82 5Q75 5 70 10T64 21Q64 34 81 34H120Q120 149 113 324Q109 464 105 544L106 595V661Q106 711 104 725H69Q59 725 59 739Q59 748 67 753Q74 756 104 756H132Q147 755 170 755Q178 755
183 752T188 741Q188 735 185 730T176 725Q169 725 164 726H152H142Q132 726 130 724L128 720Q128 642 141 405Q153 186 153 90V62Q152 49 152 35H188Q211 35 211 21Q211 15 207 10T197 4H143Q119 5 82 5ZM126 801T121 805T115 815Q115 818 143 841L175 867L202
888Q236 914 239 917Q261 917 261 902L258 886Q206 862 133 801Q126 801 121 805Z" />
<glyph unicode="&#xce;" glyph-name="Icircumflex" horiz-adv-x="270" d="M119 5T82 5Q75 5 70 10T64 21Q64 34 81 34H120Q120 149 113 324Q109 464 105 544L106 595V661Q106 711 104 725H69Q59 725 59 739Q59 748 67 753Q74 756 104 756H132Q147 755 170 755Q178
755 183 752T188 741Q188 735 185 730T176 725Q169 725 164 726H152H142Q132 726 130 724L128 720Q128 642 141 405Q153 186 153 90V62Q152 49 152 35H188Q211 35 211 21Q211 15 207 10T197 4H143Q119 5 82 5ZM167 780Q162 844 139 930Q135 924 105 834Q97 808
97 800L80 777L61 790Q62 805 79 847T116 924T145 959Q160 959 160 938Q160 905 178 857L189 821L188 815L196 800L195 795Q196 791 197 789T199 784Q199 775 181 772L167 780Z" />
<glyph unicode="&#xcf;" glyph-name="Idieresis" horiz-adv-x="270" d="M119 5T82 5Q75 5 70 10T64 21Q64 34 81 34H120Q120 149 113 324Q109 464 105 544L106 595V661Q106 711 104 725H69Q59 725 59 739Q59 748 67 753Q74 756 104 756H132Q147 755 170 755Q178
755 183 752T188 741Q188 735 185 730T176 725Q169 725 164 726H152H142Q132 726 130 724L128 720Q128 642 141 405Q153 186 153 90V62Q152 49 152 35H188Q211 35 211 21Q211 15 207 10T197 4H143Q119 5 82 5ZM192 809T186 816T180 831Q180 840 187 848T204 856Q213
856 219 848T226 832Q226 809 200 809Q192 809 186 816ZM59 805T54 813T48 830Q48 839 55 847T72 855Q82 855 87 845T92 822Q92 814 85 810T67 805Q59 805 54 813Z" />
<glyph unicode="&#xd0;" glyph-name="Eth" horiz-adv-x="430" d="M138 -40T136 -39Q128 -37 125 -34T118 -24H117Q117 108 108 294Q106 312 106 320Q105 332 103 348T100 368Q89 368 69 365Q48 362 39 362Q30 362 28 365T25 379Q25 397 87 397H96L100 399V401L101
404Q101 424 94 494Q87 550 87 584L85 644L83 674Q79 726 79 763Q79 768 85 776T95 784Q125 784 157 767T217 721Q268 667 301 606V604Q348 471 348 317Q348 250 323 178T252 45Q204 -18 147 -43Q138 -40 136 -39ZM160 5T167 10Q170 12 180 22L187 29Q238 80 275
158T312 301Q312 360 311 386T305 452Q301 489 291 531Q274 612 229 671T115 751L113 749Q113 671 120 542T137 401Q149 401 171 407Q198 412 206 412Q214 412 219 405T227 388L217 376Q164 376 135 369Q136 338 138 282T142 220L141 219Q141 193 146 111Q151 31
151 3Q160 5 167 10Z" />
<glyph unicode="&#xd1;" glyph-name="Ntilde" horiz-adv-x="380" d="M265 -11T259 -4T251 12L248 31Q245 43 245 46Q133 447 122 496Q113 532 81 696Q80 690 80 655V293L82 150L84 8L78 0H55L52 8Q54 18 54 48L53 222L51 396V527V622Q50 664 50 716Q50 722 49
727V737Q49 749 55 753T76 758Q82 758 89 752T99 739L120 641Q134 571 144 535Q165 452 216 263Q245 139 268 73Q274 88 274 121Q274 218 276 295L278 469Q278 512 279 547V624L278 765Q283 779 299 779Q307 779 307 750Q307 737 306 729Q306 721 306 718T305 713V649Q305
516 304 412Q303 307 303 176Q303 151 300 97L298 18Q298 -11 272 -11Q265 -11 259 -4ZM97 785T91 790T84 802Q84 833 101 852T143 871Q168 871 185 851Q193 836 210 824T242 812Q268 812 268 848L266 858L262 867Q265 873 272 873Q283 873 289 863T295 839Q295
818 279 802T242 786Q226 786 208 796T179 817Q171 824 153 845L146 848Q131 848 120 840T109 821L114 800L103 785Q97 785 91 790Z" />
<glyph unicode="&#xd2;" glyph-name="Ograve" horiz-adv-x="368" d="M61 -21T61 460V500Q61 584 71 646Q77 685 87 710T116 750Q133 767 160 767Q184 767 204 758T237 733Q248 719 257 696T271 652L279 605Q303 434 303 302V299Q303 249 301 207Q299 157 290 102Q286
75 279 55T259 15Q238 -21 200 -21Q61 -21 61 460ZM218 7T231 25T251 77Q267 147 271 214Q273 268 273 319V323L272 423Q270 477 260 563Q252 624 227 688Q217 713 201 727T165 741Q148 741 135 725T114 680Q96 613 94 556Q91 507 91 455V406Q91 339 104 236Q112
171 124 123T156 42Q176 7 202 7Q218 7 231 25ZM182 796T151 813T103 841L87 842Q57 848 57 865Q57 882 67 889L73 887Q103 883 109 870Q109 869 121 864L157 842Q179 828 194 816Q210 803 210 795Q210 788 197 788Q182 796 151 813Z" />
<glyph unicode="&#xd3;" glyph-name="Oacute" horiz-adv-x="368" d="M61 -21T61 460V500Q61 584 71 646Q77 685 87 710T116 750Q133 767 160 767Q184 767 204 758T237 733Q248 719 257 696T271 652L279 605Q303 434 303 302V299Q303 249 301 207Q299 157 290 102Q286
75 279 55T259 15Q238 -21 200 -21Q61 -21 61 460ZM218 7T231 25T251 77Q267 147 271 214Q273 268 273 319V323L272 423Q270 477 260 563Q252 624 227 688Q217 713 201 727T165 741Q148 741 135 725T114 680Q96 613 94 556Q91 507 91 455V406Q91 339 104 236Q112
171 124 123T156 42Q176 7 202 7Q218 7 231 25ZM151 816T146 820T140 830Q140 833 168 856L200 882L227 903Q261 929 264 932Q286 932 286 917L283 901Q231 877 158 816Q151 816 146 820Z" />
<glyph unicode="&#xd4;" glyph-name="Ocircumflex" horiz-adv-x="368" d="M61 -21T61 460V500Q61 584 71 646Q77 685 87 710T116 750Q133 767 160 767Q184 767 204 758T237 733Q248 719 257 696T271 652L279 605Q303 434 303 302V299Q303 249 301 207Q299 157
290 102Q286 75 279 55T259 15Q238 -21 200 -21Q61 -21 61 460ZM218 7T231 25T251 77Q267 147 271 214Q273 268 273 319V323L272 423Q270 477 260 563Q252 624 227 688Q217 713 201 727T165 741Q148 741 135 725T114 680Q96 613 94 556Q91 507 91 455V406Q91 339
104 236Q112 171 124 123T156 42Q176 7 202 7Q218 7 231 25ZM192 795Q187 859 164 945Q160 939 130 849Q122 823 122 815L105 792L86 805Q87 820 104 862T141 939T170 974Q185 974 185 953Q185 920 203 872L214 836L213 830L221 815L220 810Q221 806 222 804T224
799Q224 790 206 787L192 795Z" />
<glyph unicode="&#xd5;" glyph-name="Otilde" horiz-adv-x="368" d="M61 -21T61 460V500Q61 584 71 646Q77 685 87 710T116 750Q133 767 160 767Q184 767 204 758T237 733Q248 719 257 696T271 652L279 605Q303 434 303 302V299Q303 249 301 207Q299 157 290 102Q286
75 279 55T259 15Q238 -21 200 -21Q61 -21 61 460ZM218 7T231 25T251 77Q267 147 271 214Q273 268 273 319V323L272 423Q270 477 260 563Q252 624 227 688Q217 713 201 727T165 741Q148 741 135 725T114 680Q96 613 94 556Q91 507 91 455V406Q91 339 104 236Q112
171 124 123T156 42Q176 7 202 7Q218 7 231 25ZM67 800T61 805T54 817Q54 848 71 867T113 886Q138 886 155 866Q163 851 180 839T212 827Q238 827 238 863L236 873L232 882Q235 888 242 888Q253 888 259 878T265 854Q265 833 249 817T212 801Q196 801 178 811T149
832Q141 839 123 860L116 863Q101 863 90 855T79 836L84 815L73 800Q67 800 61 805Z" />
<glyph unicode="&#xd6;" glyph-name="Odieresis" horiz-adv-x="368" d="M61 -21T61 460V500Q61 584 71 646Q77 685 87 710T116 750Q133 767 160 767Q184 767 204 758T237 733Q248 719 257 696T271 652L279 605Q303 434 303 302V299Q303 249 301 207Q299 157 290
102Q286 75 279 55T259 15Q238 -21 200 -21Q61 -21 61 460ZM218 7T231 25T251 77Q267 147 271 214Q273 268 273 319V323L272 423Q270 477 260 563Q252 624 227 688Q217 713 201 727T165 741Q148 741 135 725T114 680Q96 613 94 556Q91 507 91 455V406Q91 339 104
236Q112 171 124 123T156 42Q176 7 202 7Q218 7 231 25ZM217 824T211 831T205 846Q205 855 212 863T229 871Q238 871 244 863T251 847Q251 824 225 824Q217 824 211 831ZM84 820T79 828T73 845Q73 854 80 862T97 870Q107 870 112 860T117 837Q117 829 110 825T92
820Q84 820 79 828Z" />
<glyph unicode="&#xd7;" glyph-name="multiply" horiz-adv-x="361" d="M261 207T258 210L236 231Q232 234 216 252Q205 266 193 276Q184 285 178 285Q170 285 160 276T143 254Q120 223 104 223Q98 223 91 228T84 238Q84 242 92 250Q104 262 113 269Q124 278 130
284T143 300Q151 313 151 316Q140 327 120 343Q117 345 83 376Q68 391 68 399Q68 404 75 411T88 419Q95 419 100 414L105 404Q166 342 180 342Q190 342 205 359Q209 363 222 379T247 403T265 412Q270 412 275 407T280 397Q280 391 270 380T247 357T227 338Q209
323 209 314Q209 306 221 294T250 271Q290 243 290 230Q290 221 283 214T265 207Q261 207 258 210Z" />
<glyph unicode="&#xd8;" glyph-name="Oslash" horiz-adv-x="318" d="M62 -117Q63 -102 66 -83T77 -32Q81 -15 91 54Q91 62 87 73Q85 79 82 90Q61 221 61 465V528Q61 766 134 766Q139 766 149 761Q159 755 163 755L167 757L172 752Q182 779 189 825Q193 846 195
859T198 878H216L215 849L194 728Q194 716 209 699L208 697Q209 688 218 675Q223 668 223 667Q234 639 234 600L232 599Q232 574 240 507Q247 450 247 415V409L249 406L251 311Q252 269 252 217Q252 182 251 153Q249 117 240 78Q233 44 210 17Q191 -10 153 -10Q119
-10 104 10H103Q98 -24 77 -129L62 -117ZM106 137T112 181Q118 229 129 332L138 414L140 436Q142 454 144 478T149 532L153 577L155 599L160 634Q167 688 167 711Q167 723 157 731T135 739L131 738L124 735L119 733L113 735Q82 716 82 416V410Q82 365 91 344Q91
310 97 239Q103 169 103 134Q106 137 112 181ZM226 11T226 195Q226 608 190 678Q177 593 160 399Q144 206 124 105Q117 61 117 58Q117 33 127 22T161 11Q226 11 226 195Z" />
<glyph unicode="&#xd9;" glyph-name="Ugrave" horiz-adv-x="372" d="M184 -19T164 -9T131 17Q118 32 108 54T92 98Q82 132 77 183L75 214Q75 224 75 227T74 231Q69 280 62 447T54 707V714V722Q54 748 69 748Q90 748 90 724V717L89 709Q89 593 96 435T110 206Q115
162 127 116Q135 85 144 64T169 29Q187 13 204 13Q221 13 234 21T255 42Q262 53 266 70T272 104Q273 114 273 137V251Q273 327 269 438L265 566L263 651Q260 707 260 736Q260 747 266 753T280 759Q288 759 293 753T299 736V660Q299 610 300 570V480Q300 383 302
310Q303 236 303 144Q303 119 301 100T293 60Q287 36 277 20T249 -8Q230 -19 207 -19Q184 -19 164 -9ZM179 781T148 798T100 826L84 827Q54 833 54 850Q54 867 64 874L70 872Q100 868 106 855Q106 854 118 849L154 827Q176 813 191 801Q207 788 207 780Q207 773
194 773Q179 781 148 798Z" />
<glyph unicode="&#xda;" glyph-name="Uacute" horiz-adv-x="372" d="M184 -19T164 -9T131 17Q118 32 108 54T92 98Q82 132 77 183L75 214Q75 224 75 227T74 231Q69 280 62 447T54 707V714V722Q54 748 69 748Q90 748 90 724V717L89 709Q89 593 96 435T110 206Q115
162 127 116Q135 85 144 64T169 29Q187 13 204 13Q221 13 234 21T255 42Q262 53 266 70T272 104Q273 114 273 137V251Q273 327 269 438L265 566L263 651Q260 707 260 736Q260 747 266 753T280 759Q288 759 293 753T299 736V660Q299 610 300 570V480Q300 383 302
310Q303 236 303 144Q303 119 301 100T293 60Q287 36 277 20T249 -8Q230 -19 207 -19Q184 -19 164 -9ZM148 801T143 805T137 815Q137 818 165 841L197 867L224 888Q258 914 261 917Q283 917 283 902L280 886Q228 862 155 801Q148 801 143 805Z" />
<glyph unicode="&#xdb;" glyph-name="Ucircumflex" horiz-adv-x="372" d="M184 -19T164 -9T131 17Q118 32 108 54T92 98Q82 132 77 183L75 214Q75 224 75 227T74 231Q69 280 62 447T54 707V714V722Q54 748 69 748Q90 748 90 724V717L89 709Q89 593 96 435T110
206Q115 162 127 116Q135 85 144 64T169 29Q187 13 204 13Q221 13 234 21T255 42Q262 53 266 70T272 104Q273 114 273 137V251Q273 327 269 438L265 566L263 651Q260 707 260 736Q260 747 266 753T280 759Q288 759 293 753T299 736V660Q299 610 300 570V480Q300
383 302 310Q303 236 303 144Q303 119 301 100T293 60Q287 36 277 20T249 -8Q230 -19 207 -19Q184 -19 164 -9ZM189 780Q184 844 161 930Q157 924 127 834Q119 808 119 800L102 777L83 790Q84 805 101 847T138 924T167 959Q182 959 182 938Q182 905 200 857L211
821L210 815L218 800L217 795Q218 791 219 789T221 784Q221 775 203 772L189 780Z" />
<glyph unicode="&#xdc;" glyph-name="Udieresis" horiz-adv-x="372" d="M184 -19T164 -9T131 17Q118 32 108 54T92 98Q82 132 77 183L75 214Q75 224 75 227T74 231Q69 280 62 447T54 707V714V722Q54 748 69 748Q90 748 90 724V717L89 709Q89 593 96 435T110 206Q115
162 127 116Q135 85 144 64T169 29Q187 13 204 13Q221 13 234 21T255 42Q262 53 266 70T272 104Q273 114 273 137V251Q273 327 269 438L265 566L263 651Q260 707 260 736Q260 747 266 753T280 759Q288 759 293 753T299 736V660Q299 610 300 570V480Q300 383 302
310Q303 236 303 144Q303 119 301 100T293 60Q287 36 277 20T249 -8Q230 -19 207 -19Q184 -19 164 -9ZM214 809T208 816T202 831Q202 840 209 848T226 856Q235 856 241 848T248 832Q248 809 222 809Q214 809 208 816ZM81 805T76 813T70 830Q70 839 77 847T94 855Q104
855 109 845T114 822Q114 814 107 810T89 805Q81 805 76 813Z" />
<glyph unicode="&#xdd;" glyph-name="Yacute" horiz-adv-x="252" d="M123 -12T119 -5T115 12Q115 44 118 108L120 205Q120 219 117 246Q113 270 113 286Q113 303 107 333Q101 365 101 379Q101 391 91 436Q88 445 87 450T85 458Q81 486 72 527Q55 620 39 674Q24
722 24 739Q24 746 30 750T44 755L56 747Q59 702 83 587T119 454Q121 459 129 541Q136 614 149 686Q161 752 178 752Q183 752 186 752T191 749Q193 747 193 741Q193 732 189 720L185 700L159 551Q154 522 150 480T146 405Q146 396 147 389Q148 381 148 372L142
357V349L144 310L146 289Q149 249 149 229Q149 71 147 27L150 24Q150 22 151 21V17Q151 5 146 -3T129 -12Q123 -12 119 -5ZM97 801T92 805T86 815Q86 818 114 841L146 867L173 888Q207 914 210 917Q232 917 232 902L229 886Q177 862 104 801Q97 801 92 805Z" />
<glyph unicode="&#xde;" glyph-name="Thorn" horiz-adv-x="318" d="M86 -6T86 29Q86 70 87 92V155Q87 193 86 216L85 278Q85 334 80 457Q80 477 78 505L77 537Q77 537 75 571L73 595Q69 636 69 667L68 681Q68 683 68 689T69 708L70 740V745L69 747Q69 752 77 755Q79
755 91 752Q93 752 93 752Q95 739 96 686Q96 637 98 619V618Q134 618 164 607T215 577Q234 559 247 535T265 485Q270 458 270 433Q270 383 248 323T195 238Q187 233 182 231Q172 227 169 224Q159 218 115 208Q115 153 118 117Q121 80 121 25Q121 9 117 2T99 -6Q86
-6 86 29ZM128 247T149 254T177 268Q242 335 242 431Q242 589 102 589V563Q102 509 108 402Q115 280 115 245Q128 247 149 254Z" />
<glyph unicode="&#xdf;" glyph-name="germandbls" horiz-adv-x="352" d="M90 -6T90 8L92 135Q95 219 95 261Q95 335 91 440Q88 559 88 618Q88 750 164 750Q202 750 223 707T244 593Q244 539 228 493T180 417Q226 393 251 345T276 231V208Q276 170 274 147T263
98Q246 42 188 13L180 11Q172 11 166 15T159 26Q159 34 171 43Q190 52 210 68T234 96Q248 122 248 176V181Q248 243 230 303Q221 335 203 360T160 396Q153 399 149 406T144 419Q144 424 146 428Q148 432 152 432Q154 434 159 434Q179 440 198 490T218 581Q218 638
202 678Q187 716 165 716Q119 716 119 613Q119 563 121 523L123 433V395L125 209L127 24Q127 -6 109 -6H108Q90 -6 90 8Z" />
<glyph unicode="&#xe0;" glyph-name="agrave" horiz-adv-x="313" d="M254 -9T250 -6T244 13Q235 86 233 104L228 144Q206 149 178 149L142 151Q118 154 107 154Q101 154 100 149Q100 146 99 146L97 126Q96 108 86 54Q81 27 74 12Q66 -5 59 -5Q53 -5 46 0T39 12L40
15L41 18Q59 89 71 159L83 221L95 297Q95 297 106 363Q111 390 124 450Q138 518 141 543Q142 546 145 580Q149 618 152 636Q155 662 158 666H165Q168 665 172 665Q184 665 190 671Q197 671 202 667T208 656Q208 608 215 546Q219 514 221 493Q232 364 277 9V6Q277
-4 269 -9Q254 -9 250 -6ZM223 171Q213 315 185 596L131 329Q108 214 108 184Q108 179 146 175T213 171H223ZM211 707T171 721T126 738Q120 736 110 736Q76 736 76 756Q76 774 82 778H88Q118 778 127 767Q127 766 139 763Q149 760 179 748Q203 738 220 729Q239
718 239 710Q239 707 235 705T227 702Q211 707 171 721Z" />
<glyph unicode="&#xe1;" glyph-name="aacute" horiz-adv-x="313" d="M254 -9T250 -6T244 13Q235 86 233 104L228 144Q206 149 178 149L142 151Q118 154 107 154Q101 154 100 149Q100 146 99 146L97 126Q96 108 86 54Q81 27 74 12Q66 -5 59 -5Q53 -5 46 0T39 12L40
15L41 18Q59 89 71 159L83 221L95 297Q95 297 106 363Q111 390 124 450Q138 518 141 543Q142 546 145 580Q149 618 152 636Q155 662 158 666H165Q168 665 172 665Q184 665 190 671Q197 671 202 667T208 656Q208 608 215 546Q219 514 221 493Q232 364 277 9V6Q277
-4 269 -9Q254 -9 250 -6ZM223 171Q213 315 185 596L131 329Q108 214 108 184Q108 179 146 175T213 171H223ZM179 693T174 697T168 707Q168 710 196 733L228 759L255 780Q289 806 292 809Q314 809 314 794L311 778Q259 754 186 693Q179 693 174 697Z" />
<glyph unicode="&#xe2;" glyph-name="acircumflex" horiz-adv-x="313" d="M254 -9T250 -6T244 13Q235 86 233 104L228 144Q206 149 178 149L142 151Q118 154 107 154Q101 154 100 149Q100 146 99 146L97 126Q96 108 86 54Q81 27 74 12Q66 -5 59 -5Q53 -5 46 0T39
12L40 15L41 18Q59 89 71 159L83 221L95 297Q95 297 106 363Q111 390 124 450Q138 518 141 543Q142 546 145 580Q149 618 152 636Q155 662 158 666H165Q168 665 172 665Q184 665 190 671Q197 671 202 667T208 656Q208 608 215 546Q219 514 221 493Q232 364 277
9V6Q277 -4 269 -9Q254 -9 250 -6ZM223 171Q213 315 185 596L131 329Q108 214 108 184Q108 179 146 175T213 171H223ZM223 682Q218 746 195 832Q191 826 161 736Q153 710 153 702L136 679L117 692Q118 707 135 749T172 826T201 861Q216 861 216 840Q216 807 234
759L245 723L244 717L252 702L251 697Q252 693 253 691T255 686Q255 677 237 674L223 682Z" />
<glyph unicode="&#xe3;" glyph-name="atilde" horiz-adv-x="313" d="M254 -9T250 -6T244 13Q235 86 233 104L228 144Q206 149 178 149L142 151Q118 154 107 154Q101 154 100 149Q100 146 99 146L97 126Q96 108 86 54Q81 27 74 12Q66 -5 59 -5Q53 -5 46 0T39 12L40
15L41 18Q59 89 71 159L83 221L95 297Q95 297 106 363Q111 390 124 450Q138 518 141 543Q142 546 145 580Q149 618 152 636Q155 662 158 666H165Q168 665 172 665Q184 665 190 671Q197 671 202 667T208 656Q208 608 215 546Q219 514 221 493Q232 364 277 9V6Q277
-4 269 -9Q254 -9 250 -6ZM223 171Q213 315 185 596L131 329Q108 214 108 184Q108 179 146 175T213 171H223ZM93 692T87 697T80 709Q80 740 97 759T139 778Q164 778 181 758Q189 743 206 731T238 719Q264 719 264 755L262 765L258 774Q261 780 268 780Q279 780
285 770T291 746Q291 725 275 709T238 693Q222 693 204 703T175 724Q167 731 149 752L142 755Q127 755 116 747T105 728L110 707L99 692Q93 692 87 697Z" />
<glyph unicode="&#xe4;" glyph-name="adieresis" horiz-adv-x="313" d="M254 -9T250 -6T244 13Q235 86 233 104L228 144Q206 149 178 149L142 151Q118 154 107 154Q101 154 100 149Q100 146 99 146L97 126Q96 108 86 54Q81 27 74 12Q66 -5 59 -5Q53 -5 46 0T39
12L40 15L41 18Q59 89 71 159L83 221L95 297Q95 297 106 363Q111 390 124 450Q138 518 141 543Q142 546 145 580Q149 618 152 636Q155 662 158 666H165Q168 665 172 665Q184 665 190 671Q197 671 202 667T208 656Q208 608 215 546Q219 514 221 493Q232 364 277
9V6Q277 -4 269 -9Q254 -9 250 -6ZM223 171Q213 315 185 596L131 329Q108 214 108 184Q108 179 146 175T213 171H223ZM243 740T237 747T231 762Q231 771 238 779T255 787Q264 787 270 779T277 763Q277 740 251 740Q243 740 237 747ZM110 736T105 744T99 761Q99
770 106 778T123 786Q133 786 138 776T143 753Q143 745 136 741T118 736Q110 736 105 744Z" />
<glyph unicode="&#xe5;" glyph-name="aring" horiz-adv-x="313" d="M254 -9T250 -6T244 13Q235 86 233 104L228 144Q206 149 178 149L142 151Q118 154 107 154Q101 154 100 149Q100 146 99 146L97 126Q96 108 86 54Q81 27 74 12Q66 -5 59 -5Q53 -5 46 0T39 12L40
15L41 18Q59 89 71 159L83 221L95 297Q95 297 106 363Q111 390 124 450Q138 518 141 543Q142 546 145 580Q149 618 152 636Q155 662 158 666H165Q168 665 172 665Q184 665 190 671Q197 671 202 667T208 656Q208 608 215 546Q219 514 221 493Q232 364 277 9V6Q277
-4 269 -9Q254 -9 250 -6ZM223 171Q213 315 185 596L131 329Q108 214 108 184Q108 179 146 175T213 171H223ZM159 683T144 699T129 736Q129 759 147 778T187 798Q206 798 224 779T242 740Q242 713 225 698T178 683Q159 683 144 699ZM187 702T201 710T216 730Q216
750 209 764T187 779Q175 779 164 767T152 741Q152 721 160 710Q165 702 174 702Q187 702 201 710Z" />
<glyph unicode="&#xe6;" glyph-name="ae" horiz-adv-x="403" d="M222 7Q230 48 230 112L228 203L226 293L220 300Q217 298 189 297Q168 296 141 292Q119 289 117 283L67 102Q65 93 60 65T48 21Q40 1 32 1Q29 1 27 5T24 13Q25 56 64 211Q114 371 195 584L197 590L198
592V594Q216 658 241 658Q262 658 279 659H318Q350 659 350 643L343 631H293Q265 631 245 629Q245 587 246 553L248 476V405Q249 374 249 333L253 327Q283 337 333 337L346 320Q346 303 275 303H249Q249 240 250 189Q252 139 252 75V55Q251 45 251 34Q251 17 260
17Q275 17 317 22Q355 28 374 28Q382 28 389 25T396 15Q396 4 366 1Q326 -3 301 -3Q264 -5 259 -7Q257 -6 251 -6H245Q241 -7 236 -7L222 7ZM168 314T225 326V463V496Q226 511 226 530V568L225 604Q216 595 172 465T125 314Q168 314 225 326Z" />
<glyph unicode="&#xe7;" glyph-name="ccedilla" horiz-adv-x="285" d="M146 -7Q127 -1 114 10T88 43Q67 83 63 158Q61 192 61 218V332Q61 397 65 458Q68 503 74 534T93 596Q107 628 124 641Q131 647 151 655Q164 660 176 666H216H219Q220 665 222 665L227 664L231
661Q234 658 234 657Q235 655 235 651L222 636H180Q161 636 146 618T122 571Q114 546 109 512T103 453Q101 421 101 409L99 404Q99 348 97 303L95 202Q95 158 101 121Q106 81 130 49Q153 17 201 17Q216 17 226 26Q241 26 241 15Q241 8 229 -1T203 -16H170L146 -7ZM391
-219T378 -212T364 -192Q364 -182 375 -182Q379 -182 391 -187Q403 -192 407 -192Q424 -192 435 -172T446 -123Q446 -90 431 -78L418 -80L404 -82Q389 -82 377 -62Q385 -41 385 -4V7L414 11Q410 -19 410 -40Q483 -44 483 -140Q483 -156 473 -174T444 -206T407 -219Q391
-219 378 -212Z" />
<glyph unicode="&#xe8;" glyph-name="egrave" horiz-adv-x="256" d="M73 -13T71 8V21Q72 26 72 33L68 37Q76 58 76 78Q76 101 73 144L71 210Q71 260 74 360Q78 449 78 511L76 571Q74 598 74 631Q74 646 81 652T103 659Q113 659 119 653Q121 652 148 649Q173 646
191 640Q210 634 210 625Q210 615 191 605Q134 624 110 624L105 618Q106 609 106 575Q106 532 104 498Q103 463 103 420Q103 392 117 392L133 393Q141 394 150 394Q189 394 189 376Q189 365 184 358T169 350Q154 350 146 358L114 363H109L104 358V355Q106 338 106
276Q106 237 105 205L104 134Q104 95 107 54Q108 31 117 24T150 16L168 17Q177 18 188 18Q217 18 217 5Q217 -13 173 -13H91Q73 -13 71 8ZM165 698T125 712T80 729Q74 727 64 727Q30 727 30 747Q30 765 36 769H42Q72 769 81 758Q81 757 93 754Q103 751 133 739Q157
729 174 720Q193 709 193 701Q193 698 189 696T181 693Q165 698 125 712Z" />
<glyph unicode="&#xe9;" glyph-name="eacute" horiz-adv-x="256" d="M73 -13T71 8V21Q72 26 72 33L68 37Q76 58 76 78Q76 101 73 144L71 210Q71 260 74 360Q78 449 78 511L76 571Q74 598 74 631Q74 646 81 652T103 659Q113 659 119 653Q121 652 148 649Q173 646
191 640Q210 634 210 625Q210 615 191 605Q134 624 110 624L105 618Q106 609 106 575Q106 532 104 498Q103 463 103 420Q103 392 117 392L133 393Q141 394 150 394Q189 394 189 376Q189 365 184 358T169 350Q154 350 146 358L114 363H109L104 358V355Q106 338 106
276Q106 237 105 205L104 134Q104 95 107 54Q108 31 117 24T150 16L168 17Q177 18 188 18Q217 18 217 5Q217 -13 173 -13H91Q73 -13 71 8ZM133 684T128 688T122 698Q122 701 150 724L182 750L209 771Q243 797 246 800Q268 800 268 785L265 769Q213 745 140 684Q133
684 128 688Z" />
<glyph unicode="&#xea;" glyph-name="ecircumflex" horiz-adv-x="256" d="M73 -13T71 8V21Q72 26 72 33L68 37Q76 58 76 78Q76 101 73 144L71 210Q71 260 74 360Q78 449 78 511L76 571Q74 598 74 631Q74 646 81 652T103 659Q113 659 119 653Q121 652 148 649Q173
646 191 640Q210 634 210 625Q210 615 191 605Q134 624 110 624L105 618Q106 609 106 575Q106 532 104 498Q103 463 103 420Q103 392 117 392L133 393Q141 394 150 394Q189 394 189 376Q189 365 184 358T169 350Q154 350 146 358L114 363H109L104 358V355Q106 338
106 276Q106 237 105 205L104 134Q104 95 107 54Q108 31 117 24T150 16L168 17Q177 18 188 18Q217 18 217 5Q217 -13 173 -13H91Q73 -13 71 8ZM177 673Q172 737 149 823Q145 817 115 727Q107 701 107 693L90 670L71 683Q72 698 89 740T126 817T155 852Q170 852
170 831Q170 798 188 750L199 714L198 708L206 693L205 688Q206 684 207 682T209 677Q209 668 191 665L177 673Z" />
<glyph unicode="&#xeb;" glyph-name="edieresis" horiz-adv-x="256" d="M73 -13T71 8V21Q72 26 72 33L68 37Q76 58 76 78Q76 101 73 144L71 210Q71 260 74 360Q78 449 78 511L76 571Q74 598 74 631Q74 646 81 652T103 659Q113 659 119 653Q121 652 148 649Q173
646 191 640Q210 634 210 625Q210 615 191 605Q134 624 110 624L105 618Q106 609 106 575Q106 532 104 498Q103 463 103 420Q103 392 117 392L133 393Q141 394 150 394Q189 394 189 376Q189 365 184 358T169 350Q154 350 146 358L114 363H109L104 358V355Q106 338
106 276Q106 237 105 205L104 134Q104 95 107 54Q108 31 117 24T150 16L168 17Q177 18 188 18Q217 18 217 5Q217 -13 173 -13H91Q73 -13 71 8ZM197 731T191 738T185 753Q185 762 192 770T209 778Q218 778 224 770T231 754Q231 731 205 731Q197 731 191 738ZM64
727T59 735T53 752Q53 761 60 769T77 777Q87 777 92 767T97 744Q97 736 90 732T72 727Q64 727 59 735Z" />
<glyph unicode="&#xec;" glyph-name="igrave" horiz-adv-x="237" d="M103 0T99 10Q94 10 91 9H83Q61 9 55 19Q55 26 63 31L68 36H97L101 40L103 49L104 61Q104 122 101 170L99 207L97 280Q97 319 100 397L102 513Q102 589 97 629Q88 632 67 632L56 631Q50 630
43 630Q24 630 24 647Q24 651 33 655T48 659Q86 659 124 655Q147 654 170 646Q188 640 188 629Q188 627 185 621L162 619Q155 625 133 625L128 622Q131 613 131 569Q131 503 130 450L128 331Q128 286 132 222Q135 149 135 112V99Q134 92 134 81Q134 58 137 53L136
51Q136 41 158 41Q167 41 173 42H188Q217 42 217 28Q217 19 211 14T195 8Q186 8 179 10Q171 11 162 11Q156 11 144 6Q132 0 126 0Q103 0 99 10ZM149 698T109 712T64 729Q58 727 48 727Q14 727 14 747Q14 765 20 769H26Q56 769 65 758Q65 757 77 754Q87 751 117
739Q141 729 158 720Q177 709 177 701Q177 698 173 696T165 693Q149 698 109 712Z" />
<glyph unicode="&#xed;" glyph-name="iacute" horiz-adv-x="237" d="M103 0T99 10Q94 10 91 9H83Q61 9 55 19Q55 26 63 31L68 36H97L101 40L103 49L104 61Q104 122 101 170L99 207L97 280Q97 319 100 397L102 513Q102 589 97 629Q88 632 67 632L56 631Q50 630
43 630Q24 630 24 647Q24 651 33 655T48 659Q86 659 124 655Q147 654 170 646Q188 640 188 629Q188 627 185 621L162 619Q155 625 133 625L128 622Q131 613 131 569Q131 503 130 450L128 331Q128 286 132 222Q135 149 135 112V99Q134 92 134 81Q134 58 137 53L136
51Q136 41 158 41Q167 41 173 42H188Q217 42 217 28Q217 19 211 14T195 8Q186 8 179 10Q171 11 162 11Q156 11 144 6Q132 0 126 0Q103 0 99 10ZM117 684T112 688T106 698Q106 701 134 724L166 750L193 771Q227 797 230 800Q252 800 252 785L249 769Q197 745 124
684Q117 684 112 688Z" />
<glyph unicode="&#xee;" glyph-name="icircumflex" horiz-adv-x="237" d="M103 0T99 10Q94 10 91 9H83Q61 9 55 19Q55 26 63 31L68 36H97L101 40L103 49L104 61Q104 122 101 170L99 207L97 280Q97 319 100 397L102 513Q102 589 97 629Q88 632 67 632L56 631Q50
630 43 630Q24 630 24 647Q24 651 33 655T48 659Q86 659 124 655Q147 654 170 646Q188 640 188 629Q188 627 185 621L162 619Q155 625 133 625L128 622Q131 613 131 569Q131 503 130 450L128 331Q128 286 132 222Q135 149 135 112V99Q134 92 134 81Q134 58 137
53L136 51Q136 41 158 41Q167 41 173 42H188Q217 42 217 28Q217 19 211 14T195 8Q186 8 179 10Q171 11 162 11Q156 11 144 6Q132 0 126 0Q103 0 99 10ZM161 673Q156 737 133 823Q129 817 99 727Q91 701 91 693L74 670L55 683Q56 698 73 740T110 817T139 852Q154
852 154 831Q154 798 172 750L183 714L182 708L190 693L189 688Q190 684 191 682T193 677Q193 668 175 665L161 673Z" />
<glyph unicode="&#xef;" glyph-name="idieresis" horiz-adv-x="237" d="M103 0T99 10Q94 10 91 9H83Q61 9 55 19Q55 26 63 31L68 36H97L101 40L103 49L104 61Q104 122 101 170L99 207L97 280Q97 319 100 397L102 513Q102 589 97 629Q88 632 67 632L56 631Q50 630
43 630Q24 630 24 647Q24 651 33 655T48 659Q86 659 124 655Q147 654 170 646Q188 640 188 629Q188 627 185 621L162 619Q155 625 133 625L128 622Q131 613 131 569Q131 503 130 450L128 331Q128 286 132 222Q135 149 135 112V99Q134 92 134 81Q134 58 137 53L136
51Q136 41 158 41Q167 41 173 42H188Q217 42 217 28Q217 19 211 14T195 8Q186 8 179 10Q171 11 162 11Q156 11 144 6Q132 0 126 0Q103 0 99 10ZM181 731T175 738T169 753Q169 762 176 770T193 778Q202 778 208 770T215 754Q215 731 189 731Q181 731 175 738ZM48
727T43 735T37 752Q37 761 44 769T61 777Q71 777 76 767T81 744Q81 736 74 732T56 727Q48 727 43 735Z" />
<glyph unicode="&#xf0;" glyph-name="eth" horiz-adv-x="332" d="M122 -14T105 6Q98 15 94 28T89 54Q87 72 87 83Q87 128 89 173Q91 220 101 294Q108 349 132 400Q153 446 191 446Q202 446 213 438Q210 551 197 629Q141 623 125 623Q120 623 120 627Q120 641 131
641Q157 641 195 646Q184 716 166 731Q155 736 153 737Q131 748 131 757Q131 760 135 763T143 766Q195 766 220 649L260 651Q266 651 266 646L265 641Q265 637 222 633Q239 537 239 398V394Q239 279 234 180Q231 162 229 105Q225 53 211 24Q204 7 190 -3T156 -14Q122
-14 105 6ZM169 6T178 16Q184 21 187 25T191 39Q193 47 196 67Q196 74 196 77T197 81Q213 208 213 355V412Q205 419 183 424Q167 424 155 404T134 348Q117 260 115 198Q111 122 111 85Q111 6 148 6Q169 6 178 16Z" />
<glyph unicode="&#xf1;" glyph-name="ntilde" horiz-adv-x="460" d="M319 -4T316 2T309 20Q308 28 305 34L306 37Q298 84 272 152L254 204Q252 206 235 255L227 279Q137 557 114 580Q106 553 106 510Q106 487 107 470L108 431L107 407Q106 396 106 383Q106 361
108 345Q110 313 110 313H107Q107 146 114 129V39Q118 31 118 18Q118 10 113 4T99 -2Q78 -2 78 52L80 84Q82 99 82 117Q82 165 79 261Q76 357 76 405Q76 434 79 494Q82 553 82 582V595Q82 644 100 659L103 656L113 658Q117 657 122 652Q126 648 126 643L128 637Q128
635 128 634T129 632Q145 561 201 433Q258 298 272 254Q282 219 288 192Q307 107 333 61L335 64Q358 286 358 609L357 621Q356 626 356 634Q356 655 370 655Q379 655 385 646T392 626V559L387 551Q387 456 376 239T355 3L338 -1V-2L337 -1L327 -4Q319 -4 316 2ZM137
683T131 688T124 700Q124 731 141 750T183 769Q208 769 225 749Q233 734 250 722T282 710Q308 710 308 746L306 756L302 765Q305 771 312 771Q323 771 329 761T335 737Q335 716 319 700T282 684Q266 684 248 694T219 715Q211 722 193 743L186 746Q171 746 160 738T149
719L154 698L143 683Q137 683 131 688Z" />
<glyph unicode="&#xf2;" glyph-name="ograve" horiz-adv-x="346" d="M59 -19T59 349V384Q59 663 131 663Q136 663 145 660Q177 649 208 646Q227 642 246 607Q267 571 277 512T288 391L286 386Q286 353 287 327L288 267Q288 216 284 175Q278 113 264 68Q255 41
244 23T215 -7Q199 -19 176 -19Q59 -19 59 349ZM211 10T230 65Q249 121 253 179Q257 239 257 275Q257 315 251 393Q246 480 246 511L242 519L244 524Q244 568 220 600T160 632Q114 632 105 588Q103 573 101 545Q101 471 95 444Q95 429 92 397L90 350Q90 328 91
311L92 271Q92 224 100 163Q106 118 114 87T137 34Q152 10 172 10Q211 10 230 65ZM198 698T158 712T113 729Q107 727 97 727Q63 727 63 747Q63 765 69 769H75Q105 769 114 758Q114 757 126 754Q136 751 166 739Q190 729 207 720Q226 709 226 701Q226 698 222 696T214
693Q198 698 158 712Z" />
<glyph unicode="&#xf3;" glyph-name="oacute" horiz-adv-x="346" d="M59 -19T59 349V384Q59 663 131 663Q136 663 145 660Q177 649 208 646Q227 642 246 607Q267 571 277 512T288 391L286 386Q286 353 287 327L288 267Q288 216 284 175Q278 113 264 68Q255 41
244 23T215 -7Q199 -19 176 -19Q59 -19 59 349ZM211 10T230 65Q249 121 253 179Q257 239 257 275Q257 315 251 393Q246 480 246 511L242 519L244 524Q244 568 220 600T160 632Q114 632 105 588Q103 573 101 545Q101 471 95 444Q95 429 92 397L90 350Q90 328 91
311L92 271Q92 224 100 163Q106 118 114 87T137 34Q152 10 172 10Q211 10 230 65ZM166 684T161 688T155 698Q155 701 183 724L215 750L242 771Q276 797 279 800Q301 800 301 785L298 769Q246 745 173 684Q166 684 161 688Z" />
<glyph unicode="&#xf4;" glyph-name="ocircumflex" horiz-adv-x="346" d="M59 -19T59 349V384Q59 663 131 663Q136 663 145 660Q177 649 208 646Q227 642 246 607Q267 571 277 512T288 391L286 386Q286 353 287 327L288 267Q288 216 284 175Q278 113 264 68Q255
41 244 23T215 -7Q199 -19 176 -19Q59 -19 59 349ZM211 10T230 65Q249 121 253 179Q257 239 257 275Q257 315 251 393Q246 480 246 511L242 519L244 524Q244 568 220 600T160 632Q114 632 105 588Q103 573 101 545Q101 471 95 444Q95 429 92 397L90 350Q90 328
91 311L92 271Q92 224 100 163Q106 118 114 87T137 34Q152 10 172 10Q211 10 230 65ZM210 673Q205 737 182 823Q178 817 148 727Q140 701 140 693L123 670L104 683Q105 698 122 740T159 817T188 852Q203 852 203 831Q203 798 221 750L232 714L231 708L239 693L238
688Q239 684 240 682T242 677Q242 668 224 665L210 673Z" />
<glyph unicode="&#xf5;" glyph-name="otilde" horiz-adv-x="346" d="M59 -19T59 349V384Q59 663 131 663Q136 663 145 660Q177 649 208 646Q227 642 246 607Q267 571 277 512T288 391L286 386Q286 353 287 327L288 267Q288 216 284 175Q278 113 264 68Q255 41
244 23T215 -7Q199 -19 176 -19Q59 -19 59 349ZM211 10T230 65Q249 121 253 179Q257 239 257 275Q257 315 251 393Q246 480 246 511L242 519L244 524Q244 568 220 600T160 632Q114 632 105 588Q103 573 101 545Q101 471 95 444Q95 429 92 397L90 350Q90 328 91
311L92 271Q92 224 100 163Q106 118 114 87T137 34Q152 10 172 10Q211 10 230 65ZM80 683T74 688T67 700Q67 731 84 750T126 769Q151 769 168 749Q176 734 193 722T225 710Q251 710 251 746L249 756L245 765Q248 771 255 771Q266 771 272 761T278 737Q278 716 262
700T225 684Q209 684 191 694T162 715Q154 722 136 743L129 746Q114 746 103 738T92 719L97 698L86 683Q80 683 74 688Z" />
<glyph unicode="&#xf6;" glyph-name="odieresis" horiz-adv-x="346" d="M59 -19T59 349V384Q59 663 131 663Q136 663 145 660Q177 649 208 646Q227 642 246 607Q267 571 277 512T288 391L286 386Q286 353 287 327L288 267Q288 216 284 175Q278 113 264 68Q255
41 244 23T215 -7Q199 -19 176 -19Q59 -19 59 349ZM211 10T230 65Q249 121 253 179Q257 239 257 275Q257 315 251 393Q246 480 246 511L242 519L244 524Q244 568 220 600T160 632Q114 632 105 588Q103 573 101 545Q101 471 95 444Q95 429 92 397L90 350Q90 328
91 311L92 271Q92 224 100 163Q106 118 114 87T137 34Q152 10 172 10Q211 10 230 65ZM230 731T224 738T218 753Q218 762 225 770T242 778Q251 778 257 770T264 754Q264 731 238 731Q230 731 224 738ZM97 727T92 735T86 752Q86 761 93 769T110 777Q120 777 125 767T130
744Q130 736 123 732T105 727Q97 727 92 735Z" />
<glyph unicode="&#xf7;" glyph-name="divide" horiz-adv-x="352" d="M186 453T178 460T170 477Q170 485 178 492T194 499Q217 499 217 473Q217 466 210 460T195 453Q186 453 178 460ZM88 352T82 357T76 369Q76 372 174 372H267Q271 372 274 369T278 362Q278 354
259 354L204 352H97Q88 352 82 357ZM187 228T179 235T171 252Q171 262 181 267T204 272Q212 272 216 265T221 247Q221 239 213 234T196 228Q187 228 179 235Z" />
<glyph unicode="&#xf8;" glyph-name="oslash" horiz-adv-x="292" d="M62 -121T62 -107Q63 -78 74 -28Q83 22 86 51Q86 57 83 69Q79 80 79 84Q59 198 59 425V485Q59 675 125 675Q132 675 140 671Q152 665 153 664L156 666L163 659L172 710Q181 762 185 777H201V768L191
705Q181 649 181 640Q181 631 186 626L190 619L194 613L193 611Q193 607 200 596L207 584Q218 559 218 523L216 522Q216 499 222 452Q229 407 229 381V376L231 373Q231 325 232 287L234 200Q234 163 231 132Q229 108 226 91T216 55Q209 35 200 23T176 2Q161 -7
143 -7Q111 -7 99 11H98L97 4Q82 -121 71 -121Q62 -121 62 -107ZM109 189T133 420L145 522L149 554Q156 605 156 625Q156 635 147 642T127 650L112 645L107 646Q79 631 79 382V375Q79 334 86 316Q86 285 92 220Q98 157 98 124Q109 189 133 420ZM210 12T210 180Q210
267 208 330T199 475Q192 564 177 594Q160 495 130 203Q121 112 117 98Q110 74 110 54Q110 32 119 22T151 12Q210 12 210 180Z" />
<glyph unicode="&#xf9;" glyph-name="ugrave" horiz-adv-x="366" d="M161 -15T143 -5T112 20Q98 38 90 121T80 311Q80 335 79 347Q77 598 71 644L77 658Q100 655 100 603L103 338Q103 310 108 232Q114 162 114 126Q114 12 189 12Q235 12 248 222L249 242Q256 517
256 649L255 658Q254 662 254 667Q254 678 271 678Q283 678 286 672Q288 662 288 637Q288 561 282 535L283 529Q283 516 280 489L278 449V439Q279 435 279 429Q277 405 277 383Q276 376 276 361Q274 266 272 196Q269 109 248 49Q226 -15 177 -15Q161 -15 143 -5ZM184
698T144 712T99 729Q93 727 83 727Q49 727 49 747Q49 765 55 769H61Q91 769 100 758Q100 757 112 754Q122 751 152 739Q176 729 193 720Q212 709 212 701Q212 698 208 696T200 693Q184 698 144 712Z" />
<glyph unicode="&#xfa;" glyph-name="uacute" horiz-adv-x="366" d="M161 -15T143 -5T112 20Q98 38 90 121T80 311Q80 335 79 347Q77 598 71 644L77 658Q100 655 100 603L103 338Q103 310 108 232Q114 162 114 126Q114 12 189 12Q235 12 248 222L249 242Q256 517
256 649L255 658Q254 662 254 667Q254 678 271 678Q283 678 286 672Q288 662 288 637Q288 561 282 535L283 529Q283 516 280 489L278 449V439Q279 435 279 429Q277 405 277 383Q276 376 276 361Q274 266 272 196Q269 109 248 49Q226 -15 177 -15Q161 -15 143 -5ZM152
684T147 688T141 698Q141 701 169 724L201 750L228 771Q262 797 265 800Q287 800 287 785L284 769Q232 745 159 684Q152 684 147 688Z" />
<glyph unicode="&#xfb;" glyph-name="ucircumflex" horiz-adv-x="366" d="M161 -15T143 -5T112 20Q98 38 90 121T80 311Q80 335 79 347Q77 598 71 644L77 658Q100 655 100 603L103 338Q103 310 108 232Q114 162 114 126Q114 12 189 12Q235 12 248 222L249 242Q256
517 256 649L255 658Q254 662 254 667Q254 678 271 678Q283 678 286 672Q288 662 288 637Q288 561 282 535L283 529Q283 516 280 489L278 449V439Q279 435 279 429Q277 405 277 383Q276 376 276 361Q274 266 272 196Q269 109 248 49Q226 -15 177 -15Q161 -15 143
-5ZM196 673Q191 737 168 823Q164 817 134 727Q126 701 126 693L109 670L90 683Q91 698 108 740T145 817T174 852Q189 852 189 831Q189 798 207 750L218 714L217 708L225 693L224 688Q225 684 226 682T228 677Q228 668 210 665L196 673Z" />
<glyph unicode="&#xfc;" glyph-name="udieresis" horiz-adv-x="366" d="M161 -15T143 -5T112 20Q98 38 90 121T80 311Q80 335 79 347Q77 598 71 644L77 658Q100 655 100 603L103 338Q103 310 108 232Q114 162 114 126Q114 12 189 12Q235 12 248 222L249 242Q256
517 256 649L255 658Q254 662 254 667Q254 678 271 678Q283 678 286 672Q288 662 288 637Q288 561 282 535L283 529Q283 516 280 489L278 449V439Q279 435 279 429Q277 405 277 383Q276 376 276 361Q274 266 272 196Q269 109 248 49Q226 -15 177 -15Q161 -15 143
-5ZM216 731T210 738T204 753Q204 762 211 770T228 778Q237 778 243 770T250 754Q250 731 224 731Q216 731 210 738ZM83 727T78 735T72 752Q72 761 79 769T96 777Q106 777 111 767T116 744Q116 736 109 732T91 727Q83 727 78 735Z" />
<glyph unicode="&#xfd;" glyph-name="yacute" horiz-adv-x="267" d="M135 -15T130 -11T124 -4Q133 20 133 171Q133 200 130 254L125 325L119 338L122 350Q116 364 104 397T80 464Q44 559 33 601Q27 621 24 638L38 649Q48 647 67 585Q82 541 94 498L106 460Q124
398 132 396L136 414L134 419Q142 429 154 490Q167 560 179 608Q192 664 205 664Q210 664 214 661T218 654Q218 639 188 536Q173 487 163 444Q151 393 151 353Q156 343 156 336Q156 331 153 322Q150 313 150 307Q150 302 154 262Q158 235 158 216Q158 172 159 137V57V53Q159
-15 138 -15Q135 -15 130 -11ZM112 684T107 688T101 698Q101 701 129 724L161 750L188 771Q222 797 225 800Q247 800 247 785L244 769Q192 745 119 684Q112 684 107 688Z" />
<glyph unicode="&#xfe;" glyph-name="thorn" horiz-adv-x="322" d="M119 5T115 11T111 28Q111 120 105 303Q100 505 100 575L99 726Q99 746 114 746Q140 746 140 674Q140 649 139 632Q135 601 137 601V593Q175 591 206 563T252 491Q265 453 265 413Q265 353 233
308T140 237Q139 215 144 134Q147 70 147 36Q147 20 142 13T125 5Q119 5 115 11ZM187 291T210 325T233 404Q233 441 231 460T218 496Q208 513 197 524T152 562H135L136 415Q137 340 137 260Q187 291 210 325Z" />
<glyph unicode="&#xff;" glyph-name="ydieresis" horiz-adv-x="267" d="M135 -15T130 -11T124 -4Q133 20 133 171Q133 200 130 254L125 325L119 338L122 350Q116 364 104 397T80 464Q44 559 33 601Q27 621 24 638L38 649Q48 647 67 585Q82 541 94 498L106 460Q124
398 132 396L136 414L134 419Q142 429 154 490Q167 560 179 608Q192 664 205 664Q210 664 214 661T218 654Q218 639 188 536Q173 487 163 444Q151 393 151 353Q156 343 156 336Q156 331 153 322Q150 313 150 307Q150 302 154 262Q158 235 158 216Q158 172 159 137V57V53Q159
-15 138 -15Q135 -15 130 -11ZM176 731T170 738T164 753Q164 762 171 770T188 778Q197 778 203 770T210 754Q210 731 184 731Q176 731 170 738ZM43 727T38 735T32 752Q32 761 39 769T56 777Q66 777 71 767T76 744Q76 736 69 732T51 727Q43 727 38 735Z" />
<glyph unicode="&#x2013;" glyph-name="endash" horiz-adv-x="376" d="M47 352T41 357T34 369Q34 372 172 372H315Q323 372 330 367T337 355H307Q307 352 202 352H55Q47 352 41 357Z" />
<glyph unicode="&#x2014;" glyph-name="emdash" horiz-adv-x="512" d="M47 352T41 357T34 369Q34 372 313 372H455Q463 372 470 367T478 355H447Q447 352 342 352H55Q47 352 41 357Z" />
<glyph unicode="&#x2018;" glyph-name="quoteleft" horiz-adv-x="189" d="M78 604T78 615Q78 643 102 721Q117 767 129 768H131Q137 768 141 764T146 753Q147 738 145 726T140 701T135 684Q126 655 106 613Q97 596 88 596Q85 596 81 600Q78 604 78 615Z" />
<glyph unicode="&#x2019;" glyph-name="quoteright" horiz-adv-x="187" d="M78 604T78 615Q78 643 102 721Q117 767 129 768H131Q137 768 141 764T146 753Q147 738 145 726T140 701T135 684Q126 655 106 613Q97 596 88 596Q85 596 81 600Q78 604 78 615Z" />
<glyph unicode="&#x201a;" glyph-name="quotesinglbase" horiz-adv-x="324" d="M152 -106T152 -95Q152 -67 176 11Q191 57 203 58H205Q211 58 215 54T220 43Q221 28 219 16T214 -9T209 -26Q200 -55 180 -97Q171 -114 162 -114Q159 -114 155 -110Q152 -106 152 -95Z" />
<glyph unicode="&#x201c;" glyph-name="quotedblleft" horiz-adv-x="293" d="M78 604T78 615Q78 643 102 721Q117 767 129 768H131Q137 768 141 764T146 753Q147 738 145 726T140 701T135 684Q126 655 106 613Q97 596 88 596Q85 596 81 600Q78 604 78 615ZM178
604T178 615Q178 643 202 721Q217 767 229 768H231Q237 768 241 764T246 753Q247 738 245 726T240 701T235 684Q226 655 206 613Q197 596 188 596Q185 596 181 600Q178 604 178 615Z" />
<glyph unicode="&#x201d;" glyph-name="quotedblright" horiz-adv-x="309" d="M78 604T78 615Q78 643 102 721Q117 767 129 768H131Q137 768 141 764T146 753Q147 738 145 726T140 701T135 684Q126 655 106 613Q97 596 88 596Q85 596 81 600Q78 604 78 615ZM178
604T178 615Q178 643 202 721Q217 767 229 768H231Q237 768 241 764T246 753Q247 738 245 726T240 701T235 684Q226 655 206 613Q197 596 188 596Q185 596 181 600Q178 604 178 615Z" />
<glyph unicode="&#x201e;" glyph-name="quotedblbase" horiz-adv-x="328" d="M334 -106T334 -95Q334 -67 358 11Q373 57 385 58H387Q393 58 397 54T402 43Q403 28 401 16T396 -9T391 -26Q382 -55 362 -97Q353 -114 344 -114Q341 -114 337 -110Q334 -106 334 -95ZM178
-106T178 -95Q178 -67 202 11Q217 57 229 58H231Q237 58 241 54T246 43Q247 28 245 16T240 -9T235 -26Q226 -55 206 -97Q197 -114 188 -114Q185 -114 181 -110Q178 -106 178 -95Z" />
<glyph unicode="&#x2022;" glyph-name="bullet" horiz-adv-x="250" d="M95 279T77 298T59 337Q59 368 75 393T116 419Q151 419 171 403T191 362Q191 335 179 311Q171 296 156 288T120 279Q95 279 77 298Z" />
<glyph unicode="&#x2039;" glyph-name="guilsinglleft" horiz-adv-x="342" d="M252 0T250 1L243 2H241Q225 26 201 80L184 118L134 222L124 244Q115 259 112 268Q109 277 90 302Q72 326 72 341Q72 352 95 409L147 528Q174 587 181 609Q181 612 187 628Q195 662
206 681Q212 693 219 694L232 684Q228 654 209 606T164 507Q140 459 124 414T107 342Q107 334 175 194T261 26L270 19Q268 13 264 7T256 0Q252 0 250 1Z" />
<glyph unicode="&#x203a;" glyph-name="guilsinglright" horiz-adv-x="342" d="M78 0T74 6T68 19L77 26Q98 64 164 199T231 342Q231 368 215 413T174 507Q149 557 130 605T106 684L119 694Q125 693 132 682T143 657Q144 653 151 629L157 609Q164 587 191 528L209
486L242 409Q266 354 266 341Q266 326 248 302Q229 277 226 268L214 243Q205 227 204 222L118 44L97 2L89 1L82 0Q78 0 74 6Z" />
</font>
</defs>
</svg>
